User log in
User registration
Registrations are open
Click here to register
Email: forgotten email?
Password: lost pass?
  Resend activation email
Protect your privacy! Use a VPN When Downloading Torrents
Your country is N/A. Your IP Address is 35.168.62.171.
Your Internet Provider is tracking your torrent activity! Hide your IP ADDRESS with a VPN!
We strongly recommend using NORD VPN to anonymize your torrenting.
Also, while you are using NORD you get No Ads for Demonoid members Get VPN Now! (68% off)
Details for Frozen.II.2019.BluRay.3D.Half-SBS.1080p.x264.FBR.DUAL-FG4LL4RD0
Created by Ratio: 1.00EliteHDMV 7 months ago[ Add to bookmark ]
Movies : Animation : Other Quality : English



Original Title: Frozen II
Release Year: 2019
Video Quality: BluRay - 3D (.mkv)
Video codec: x264
Audio Codec: AC3 5.1 / DTS 5.1
Audio: Portuguese / English
Subtitles: Portuguese
Resolution: 1920x1080


https://www.imdb.com/title/tt4520988/


Video
ID                                      : 1
Format                                  : AVC
Format/Info                              : Advanced Video Codec
Format profile                          : High@L4.1
Format settings, CABAC                  : Yes
Format settings, ReFrames                : 2 frames
Codec ID                                : V_MPEG4/ISO/AVC
Duration                                : 1 h 43 min
Bit rate                                : 13.0 Mb/s
Width                                    : 1 920 pixels
Height                                  : 1 080 pixels
Display aspect ratio                    : 16:9
Frame rate mode                          : Constant
Frame rate                              : 23.976 (24000/1001) FPS
Color space                              : YUV
Chroma subsampling                      : 4:2:0
Bit depth                                : 8 bits
Scan type                                : Progressive
Bits/(Pixel*Frame)                      : 0.261
Stream size                              : 9.37 GiB (87%)
Title                                    : www.baixehd.com
Writing library                          : x264 core 148
Encoding settings                        : cabac=1 / ref=1 / deblock=1:-1:-1 / analyse=0x3:0 / me=hex / subme=5 / psy=0 / mixed_ref=0 / me_range=16 / chroma_me=1 / trellis=0 / 8x8dct=1 / cqm=0 / deadzone=21,11 / fast_pskip=0 / chroma_qp_offset=0 / threads=8 / lookahead_threads=2 / sliced_threads=0 / nr=0 / decimate=1 / interlaced=0 / bluray_compat=0 / constrained_intra=0 / bframes=2 / b_pyramid=0 / b_adapt=1 / b_bias=0 / direct=1 / weightb=0 / open_gop=0 / weightp=0 / keyint=24 / keyint_min=13 / scenecut=40 / intra_refresh=0 / rc=2pass / mbtree=0 / bitrate=13000 / ratetol=1.0 / qcomp=0.60 / qpmin=0 / qpmax=69 / qpstep=4 / cplxblur=20.0 / qblur=0.5 / ip_ratio=1.40 / pb_ratio=1.30 / aq=1:1.00
Default                                  : Yes
Forced                                  : No
Color range                              : Limited
Color primaries                          : BT.709
Transfer characteristics                : BT.709
Matrix coefficients                      : BT.709

Audio #1
ID                                      : 2
Format                                  : AC-3
Format/Info                              : Audio Coding 3
Mode extension                          : CM (complete main)
Format settings, Endianness              : Big
Codec ID                                : A_AC3
Duration                                : 1 h 43 min
Bit rate mode                            : Constant
Bit rate                                : 448 kb/s
Channel(s)                              : 6 channels
Channel positions                        : Front: L C R, Side: L R, LFE
Sampling rate                            : 48.0 kHz
Frame rate                              : 31.250 FPS (1536 spf)
Bit depth                                : 16 bits
Compression mode                        : Lossy
Stream size                              : 331 MiB (3%)
Title                                    : AC3 5.1 @FG4LL4RD0
Language                                : Portuguese
Default                                  : Yes
Forced                                  : No

Audio #2
ID                                      : 3
Format                                  : DTS
Format/Info                              : Digital Theater Systems
Mode                                    : 16
Format settings, Endianness              : Big
Codec ID                                : A_DTS
Duration                                : 1 h 43 min
Bit rate mode                            : Constant
Bit rate                                : 1 509 kb/s
Channel(s)                              : 6 channels
Channel positions                        : Front: L C R, Side: L R, LFE
Sampling rate                            : 48.0 kHz
Frame rate                              : 93.750 FPS (512 spf)
Bit depth                                : 24 bits
Compression mode                        : Lossy
Stream size                              : 1.09 GiB (10%)
Title                                    : DTS 5.1 @FG4LL4RD0
Language                                : English
Default                                  : No
Forced                                  : No
Facebook Twitter Digg Reddit LinkedIn StumbleUpon Email
Show Demonoid some love with BitCoin: 1DNoidyJgB159bLJT5hDnCkZ4uQrhkfBVk How to get BitCoins?
Peers: 0 seeders, 0 leechers, 0 total - Updated: 6 months ago [ Update now ]
Size: 10.78 GB 

Sponsored links
Related torrents
Torrents you may also like:
Download this torrent
Extra information
Tracker: udp://tracker.coppersurfer.tk:6969/announce
Torrent hash: B471CAB3 59A74FE8 5EAA92E2 A37DDC01 6815709B
Files described inside the torrent: 6 [ Click here to show the full list ]
Comments
No comments posted yet

Disclaimer: None of the files shown here are actually hosted or transmitted by this server. The links are provided solely by this site's users. The site moderation is also a service provided by the site's users. The administrator of this site (demonoid.is) cannot be held responsible for what its users post, or any other actions of its users. You may not use this site to distribute or download any material when you do not have the legal rights to do so. It is your own responsibility to adhere to these terms.

By using this site you indicate your agreement to our terms and conditions
   
Link to us | Contact us | API | Commemoration | Twitter: @DemonoidBT | Feeds/RSS | DMCA
This site and the Demonoid logo are Copyright © Demonoid. All rights reserved.

Show Demonoid some love with 1DNoidyJgB159bLJT5hDnCkZ4uQrhkfBVk