User log in
User registration
Registrations are open
Click here to register
Email: forgotten email?
Password: lost pass?
  Resend activation email
Protect your privacy! Use a VPN When Downloading Torrents
Your country is N/A. Your IP Address is 35.168.62.171.
Your Internet Provider is tracking your torrent activity! Hide your IP ADDRESS with a VPN!
We strongly recommend using NORD VPN to anonymize your torrenting.
Also, while you are using NORD you get No Ads for Demonoid members Get VPN Now! (68% off)
Details for Frozen II (2019) in 3D Half-OU [BDRip 1080p x264] [Dubbing PL] [elladajarek]
Created by Ratio: 1.00elladajarek 7 months ago[ Add to bookmark ]
Movies : Animation : Blu-ray 3D : English



Produkcja: USA
Gatunek: Animacja, Familijny, Przygodowy
Premiera: 7 listopada 2019 (świat)
Reżyseria: Chris Buck
Scenariusz: Allison Schroeder

Elsa i Anna wraz z przyjaciółmi udają się do Zaczarowanego Lasu w poszukiwaniu pomocy dla swego Królestwa.

Obsada:

Elsa...Idina Menzel...Katarzyna Łaska (śpiew) / Lidia Sadowa (dialogi)
Anna...Kristen Bell...Magdalena Wasylik (śpiew) / Anna Cieślak (dialogi)
Olaf...Josh Gad...Czesław Mozil
Kristoff...Jonathan Groff...Paweł Ciołkosz
Królowa Iduna...Evan Rachel Wood...Agnieszka Przekupień
Generał Mattias...Sterling K. Brown...Marcin Przybylski
Król Agnarr...Maurice LaMarche...Arkadiusz Janiczek
Yelana...Martha Plimpton...Marzena Trybała

Dane techniczne:

Format : Matroska
Format version : Version 4
File size : 6.77 GiB
Duration : 1 h 43 min
Overall bit rate : 9 383 kb/s
Writing application : mkvmerge v43.0.0 ('The Quartermaster') 64-bit
Writing library : libebml v1.3.10 + libmatroska v1.5.2

Video
ID : 1
Format : AVC
Format/Info : Advanced Video Codec
Format profile : High@L4.1
Format settings : CABAC / 4 Ref Frames
Format settings, CABAC : Yes
Format settings, Reference fra : 4 frames
Codec ID : V_MPEG4/ISO/AVC
Duration : 1 h 43 min
Bit rate : 8 000 kb/s
Width : 1 920 pixels
Height : 1 080 pixels
Display aspect ratio : 16:9
Frame rate mode : Constant
Frame rate : 23.976 (24000/1001) FPS
Color space : YUV
Chroma subsampling : 4:2:0
Bit depth : 8 bits
Scan type : Progressive
Bits/(Pixel*Frame) : 0.161
Stream size : 5.77 GiB (85%)
Writing library : x264
Language : English
Default : Yes
Forced : No

Audio #1
ID : 2
Format : AC-3
Format/Info : Audio Coding 3
Commercial name : Dolby Digital
Codec ID : A_AC3
Duration : 1 h 43 min
Bit rate mode : Constant
Bit rate : 640 kb/s
Channel(s) : 6 channels
Channel layout : L R C LFE Ls Rs
Sampling rate : 48.0 kHz
Frame rate : 31.250 FPS (1536 SPF)
Bit depth : 16 bits
Compression mode : Lossy
Stream size : 473 MiB (7%)
Language : Polish
Service kind : Complete Main
Default : Yes
Forced : No

Audio #2
ID : 3
Format : AC-3
Format/Info : Audio Coding 3
Commercial name : Dolby Digital
Codec ID : A_AC3
Duration : 1 h 43 min
Bit rate mode : Constant
Bit rate : 640 kb/s
Channel(s) : 6 channels
Channel layout : L R C LFE Ls Rs
Sampling rate : 48.0 kHz
Frame rate : 31.250 FPS (1536 SPF)
Bit depth : 16 bits
Compression mode : Lossy
Stream size : 473 MiB (7%)
Language : English
Service kind : Complete Main
Default : No
Forced : No

Text #1
ID : 4
Format : PGS
Muxing mode : zlib
Codec ID : S_HDMV/PGS
Codec ID/Info : Picture based subtitle format used on BDs/HD-DVDs
Duration : 1 h 41 min
Bit rate : 29.5 kb/s
Count of elements : 2620
Stream size : 21.4 MiB (0%)
Language : Polish
Default : No
Forced : No

Text #2
ID : 5
Format : PGS
Muxing mode : zlib
Codec ID : S_HDMV/PGS
Codec ID/Info : Picture based subtitle format used on BDs/HD-DVDs
Duration : 1 h 43 min
Bit rate : 44.1 kb/s
Count of elements : 3878
Stream size : 32.5 MiB (0%)
Language : English
Default : No
Forced : No

Text #3
ID : 6
Format : PGS
Muxing mode : zlib
Codec ID : S_HDMV/PGS
Codec ID/Info : Picture based subtitle format used on BDs/HD-DVDs
Duration : 1 h 39 min
Bit rate : 131 kb/s
Count of elements : 2254
Stream size : 92.7 MiB (1%)
Language : English
Default : No
Forced : No
Facebook Twitter Digg Reddit LinkedIn StumbleUpon Email
Show Demonoid some love with BitCoin: 1DNoidyJgB159bLJT5hDnCkZ4uQrhkfBVk How to get BitCoins?
Peers: 8 seeders, 2 leechers, 189 total - Updated: 6 months ago [ Update now ]
Size: 6.77 GB 

Sponsored links
Related torrents
Torrents you may also like:
Download this torrent
Extra information
Tracker: udp://tracker.cyberia.is:6969/announce
Torrent hash: 2CD8CF54 7FD1B288 DEF3C567 880F09AD 92CADF29
Files described inside the torrent: 1 [ Click here to show the full list ]
Comments
No comments posted yet

Disclaimer: None of the files shown here are actually hosted or transmitted by this server. The links are provided solely by this site's users. The site moderation is also a service provided by the site's users. The administrator of this site (demonoid.is) cannot be held responsible for what its users post, or any other actions of its users. You may not use this site to distribute or download any material when you do not have the legal rights to do so. It is your own responsibility to adhere to these terms.

By using this site you indicate your agreement to our terms and conditions
   
Link to us | Contact us | API | Commemoration | Twitter: @DemonoidBT | Feeds/RSS | DMCA
This site and the Demonoid logo are Copyright © Demonoid. All rights reserved.

Show Demonoid some love with 1DNoidyJgB159bLJT5hDnCkZ4uQrhkfBVk