Demonoid.is
Demonoid.is
User log in
User registration
Registrations are closed. If you
have an invitation code, click
here
Email: forgotten email?
Password: lost pass?
  Resend activation email
Protect your privacy! Use a VPN When Downloading Torrents
Your country is United States of America. Your IP Address is 3.235.172.213.
Your Internet Provider is tracking your torrent activity! Hide your IP ADDRESS with a VPN!
We strongly recommend using NORD VPN to anonymize your torrenting.
Also, while you are using NORD you get No Ads for Demonoid members Get VPN Now! (70% off)
Details for the rolling stones - let it bleed - 1969 - digital vinyl processing
Created by Ratio: 1.00guitarsam 2 months ago
Music : Rock : Lossless


commercial digital download flac 16/44 reprocessed using my digital vinyl technic. music you can feel.

audio sample: http://pc.cd/tyE7
--------------------------------------------------------------------------------
Analyzed: The Rolling Stones / Let It Bleed / digital vinyl
--------------------------------------------------------------------------------
DR         Peak         RMS     Duration Track
--------------------------------------------------------------------------------
DR12      -3.11 dB   -16.93 dB      4:31 01-Gimme Shelter
DR11      -4.72 dB   -18.58 dB      4:19 02-Love In Vain
DR14      -4.37 dB   -21.78 dB      3:07 03-Country Honk
DR14      -3.78 dB   -19.36 dB      3:33 04-Live With Me
DR12      -1.59 dB   -16.44 dB      5:28 05-Let It Bleed
DR13      -2.62 dB   -19.38 dB      6:53 06-Midnight Rambler
DR13      -3.81 dB   -20.80 dB      2:50 07-You Got The Silver
DR12      -3.82 dB   -18.28 dB      4:11 08-Monkey Man
DR12      -2.54 dB   -19.14 dB      7:29 09-You Can't Always Get What You Want
--------------------------------------------------------------------------------
Number of tracks:  9
Official DR value: DR13
Samplerate:        44100 Hz
Channels:          2
Bits per sample:   16
Bitrate:           760 kbps
Codec:             FLAC

if you want to process your own audio here is the impulse file i made extracted from the finest 1st press vintage vinyl at 32/88 - 16/44 X 2 = 32/88. i find this superior to 24/96 or 24/192. place into the impulse folder of foobar2000 (free) and use the free convolver dsp filter to load the impulse file for processing. http://pc.cd/pTq
Facebook Twitter Digg Reddit LinkedIn StumbleUpon Email
Show Demonoid some love with BitCoin: 1DNoidyJgB159bLJT5hDnCkZ4uQrhkfBVk How to get BitCoins?
Size: 238.15 MB 

Sponsored links
Loading...
Related torrents
Torrents you may also like:
No related torrents found.
Download this torrent
Extra information
Tracker: udp://tracker.coppersurfer.tk:6969/announce
Rate this torrent: [ Total: 0 ]
  • This torrent is not rated yet
  • 1
  • 2
  • 3
  • 4
  • 5
Files described inside the torrent:12 [ Click here to show the full list ]
Comments
No comments posted yet
Loading...

Disclaimer: None of the files shown here are actually hosted or transmitted by this server. The links are provided solely by this site's users. The site moderation is also a service provided by the site's users. The administrator of this site (demonoid.is) cannot be held responsible for what its users post, or any other actions of its users. You may not use this site to distribute or download any material when you do not have the legal rights to do so. It is your own responsibility to adhere to these terms.

By using this site you indicate your agreement to our terms and conditions
   
Link to us | Contact us | API | Commemoration | Feeds/RSS | DMCA
This site and the Demonoid logo are Copyright © Demonoid. All rights reserved.

Show Demonoid some love with 1DNoidyJgB159bLJT5hDnCkZ4uQrhkfBVk