User log in
User registration
Registrations are closed. If you have an invitation code, click here, or join our twitter, we post invites often there.
Email: forgotten email?
Password: lost pass?
  Resend activation email
Protect your privacy! Use a VPN When Downloading Torrents
Your IP Address is . Location is .
Your Internet Provider is tracking your torrent activity! Hide your IP ADDRESS with a VPN!
We strongly recommend using NORD VPN to anonymize your torrenting.
Also, while you are using NORD you get No Ads for Demonoid members Get VPN Now!
Details for Captain America The First Avenger 2011 BR EAC3 VFF VFQ ENG 1080p x265 10Bits T0M (Capitaine America Le Premier Vengeur, Captain America 1)
Created by Ratio: 1.00T0M 1 year ago[ Add to bookmark ]
Movies : Action : HEVC / x265 : French

______________________________________________________________________________________________________________
Captain America: The First Avenger 2011
Bluray · 1080 x265 10bits · DD+ 5.1 VFF VFQ ENG
¯¯¯¯¯¯¯¯¯¯¯¯¯¯¯¯¯¯¯¯¯¯¯¯¯¯¯¯¯¯¯¯¯¯¯¯¯¯¯¯¯¯¯¯¯¯¯¯¯¯¯¯¯¯¯¯¯¯¯¯¯¯¯¯¯¯¯¯¯¯¯¯¯¯¯¯¯¯¯¯



Year : 2011
Country : United States
French title : Captain America: First Avenger
Original title : Captain America: The First Avenger
Quebec title : Capitaine America : Le Premier Vengeur
Director : Joe Johnston
Music from : Alan Silvestri
Actors : Chris Evans, Tommy Lee Jones, Hugo Weaving, Hayley Atwell, Sebastian Stan, Dominic Cooper
Toby Jones, Stanley Tucci, Neal McDonough, Derek Luke, Bruno Ricci, JJ Feild, Kenneth Choi, Richard Armitage
Genre : Super hero, Action, Adventure, Sci-Fi, History
Certificate :   From 10 years old
Budget : 140 000 000 $ · Recipe : 466 906 773 $ · ratio : 334 %
Link : Allociné 3,4/5 ·  IMDB 6,9/10 ·  TMDB 68% ·  SensCritique 5,5/10 ·  Wiki ·  Bande Annonce

French Plot
Captain America: First Avenger nous plonge dans les premières années de l’univers Marvel. Steve Rogers, frêle et timide, se porte volontaire pour participer à un programme expérimental qui va le transformer en un Super Soldat connu sous le nom de Captain America. Allié à Bucky Barnes et Peggy Carter, il sera confronté à la diabolique organisation HYDRA dirigée par le redoutable Red Skull.
Adaptations des : Marvel Comics 1939



Technical Details
¯¯¯¯¯¯¯¯¯¯¯¯¯¯¯¯¯¯¯¯¯¯¯¯¯¯¯¯¯¯¯¯¯¯¯¯¯¯¯¯¯¯¯¯¯¯¯¯¯¯¯¯¯¯¯¯¯¯¯¯¯¯¯¯¯¯¯¯¯¯¯¯¯¯¯¯¯¯¯¯¯¯¯¯¯¯¯¯¯¯¯¯¯¯¯¯¯¯¯¯
     
Media
Matroska 4,30Gio 2h04mn 4961Kbps
Video
HEVC/H265 1920x816 @23.976 [email protected]@Main 10bits 3460Kbps VerySlow
Audio
    True French 5.1 EAC3 448Kbps 48KHz 16bits
    Quebec French 5.1 EAC3 448Kbps 48KHz 16bits
    English 5.1 EAC3 448Kbps 48KHz 16bits
    English Commentary 2.0 EAC3 128Kbps 48KHz 16bits
Subtitles
  True French forced SRT
  True French full SRT
  True French forced PGS
  True French full PGS
  English full PGS
    English full SDH PGS
Chapters
International
Screenshot
     

NFO
¯¯¯¯¯¯¯¯¯¯¯¯¯¯¯¯¯¯¯¯¯¯¯¯¯¯¯¯¯¯¯¯¯¯¯¯¯¯¯¯¯¯¯¯¯¯¯¯¯¯¯¯¯¯¯¯¯¯¯¯¯¯¯¯¯¯¯¯¯¯¯¯¯¯¯¯¯¯¯¯¯¯¯¯¯¯¯¯¯¯¯¯¯¯¯¯¯¯¯¯

General
Format                                  : Matroska
Format version                          : Version 4
File size                                : 4.30 GiB
Duration                                : 2 h 4 min
Overall bit rate                        : 4 961 kb/s
Movie name                              : Captain America : First Avenger (Captain America : The First Avenger) 2011 de Joe Johnston avec Chris Evans, Tommy Lee Jones, Hugo Weaving, Hayley Atwell, Sebastian Stan, Dominic Cooper, Toby Jones, Stanley Tucci, Neal McDonough, Derek Luke, Bruno Ricci, JJ Feild, Kenneth Choi, Richard Armitage. -10 ans (allocine=136557,imdb=tt0458339) T0M
Encoded date                            : UTC 2018-10-22 10:23:52
Writing application                      : mkvmerge v8.0.0 ('Til The Day That I Die') 64bit
Writing library                          : libebml v1.3.1 + libmatroska v1.4.2
Cover                                    : Yes
Attachments                              : Cover.jpg

Video
ID                                      : 1
Format                                  : HEVC
Format/Info                              : High Efficiency Video Coding
Format profile                          : Main [email protected]@Main
Codec ID                                : V_MPEGH/ISO/HEVC
Duration                                : 2 h 4 min
Bit rate                                : 3 460 kb/s
Width                                    : 1 920 pixels
Height                                  : 816 pixels
Display aspect ratio                    : 2.35:1
Frame rate mode                          : Constant
Frame rate                              : 23.976 (24000/1001) FPS
Color space                              : YUV
Chroma subsampling                      : 4:2:0
Bit depth                                : 10 bits
Bits/(Pixel*Frame)                      : 0.092
Stream size                              : 3.00 GiB (70%)
Title                                    : Video HEVC 1920x816 @23.976 x265 [email protected]@Main 10bits 3460kbps 2pass veryslow 2252mn
Writing library                          : x265 2.6:[Windows][GCC 7.3.0][64 bit] 10bit
Encoding settings                        : cpuid=1173503 / frame-threads=3 / numa-pools=8 / wpp / no-pmode / no-pme / no-psnr / no-ssim / log-level=2 / input-csp=1 / input-res=1920x816 / interlace=0 / total-frames=0 / level-idc=0 / high-tier=1 / uhd-bd=0 / ref=5 / no-allow-non-conformance / no-repeat-headers / annexb / no-aud / no-hrd / info / hash=0 / no-temporal-layers / open-gop / min-keyint=24 / keyint=240 / bframes=8 / b-adapt=2 / b-pyramid / bframe-bias=0 / rc-lookahead=40 / lookahead-slices=0 / scenecut=40 / no-intra-refresh / ctu=64 / min-cu-size=8 / rect / amp / max-tu-size=32 / tu-inter-depth=3 / tu-intra-depth=3 / limit-tu=4 / rdoq-level=2 / dynamic-rd=0.00 / no-ssim-rd / signhide / no-tskip / nr-intra=0 / nr-inter=0 / no-constrained-intra / strong-intra-smoothing / max-merge=4 / limit-refs=1 / limit-modes / me=3 / subme=4 / merange=57 / temporal-mvp / weightp / weightb / no-analyze-src-pics / deblock=0:0 / sao / no-sao-non-deblock / rd=6 / no-early-skip / rskip / no-fast-intra / no-tskip-fast / no-cu-lossless / b-intra / no-splitrd-skip / rdpenalty=0 / psy-rd=2.00 / psy-rdoq=1.00 / no-rd-refine / analysis-reuse-mode=0 / no-lossless / cbqpoffs=0 / crqpoffs=0 / rc=abr / bitrate=3460 / qcomp=0.60 / qpstep=4 / stats-write=0 / stats-Read=2 / cplxblur=20.0 / qblur=0.5 / ipratio=1.40 / pbratio=1.30 / aq-mode=1 / aq-strength=1.00 / cutree / zone-count=0 / no-strict-cbr / qg-size=32 / no-rc-grain / qpmax=69 / qpmin=0 / no-const-vbv / sar=1 / overscan=0 / videoformat=5 / range=0 / colorprim=1 / transfer=1 / colormatrix=1 / chromaloc=0 / display-window=0 / max-cll=0,0 / min-luma=0 / max-luma=1023 / log2-max-poc-lsb=8 / vui-timing-info / vui-hrd-info / slices=1 / no-opt-qp-pps / no-opt-ref-list-length-pps / no-multi-pass-opt-rps / scenecut-bias=0.05 / no-opt-cu-delta-qp / no-aq-motion / no-hdr / no-hdr-opt / no-dhdr10-opt / analysis-reuse-level=5 / scale-factor=0 / refine-intra=0 / refine-inter=0 / refine-mv=0 / no-limit-sao / ctu-info=0 / no-lowpass-dct / refine-mv-type=0 / copy-pic=1
Default                                  : Yes
Forced                                  : No
Color range                              : Limited
Color primaries                          : BT.709
Transfer characteristics                : BT.709
Matrix coefficients                      : BT.709

Audio #1
ID                                      : 2
Format                                  : E-AC-3
Format/Info                              : Enhanced AC-3
Commercial name                          : Dolby Digital Plus
Codec ID                                : A_EAC3
Duration                                : 2 h 4 min
Bit rate mode                            : Constant
Bit rate                                : 448 kb/s
Channel(s)                              : 6 channels
Channel layout                          : L R C LFE Ls Rs
Sampling rate                            : 48.0 kHz
Frame rate                              : 31.250 FPS (1536 SPF)
Compression mode                        : Lossy
Delay relative to video                  : 5 ms
Stream size                              : 398 MiB (9%)
Title                                    : Français 5.1 EAC3 448kbps 48khz 16bits
Language                                : French
Service kind                            : Complete Main
Default                                  : Yes
Forced                                  : No

Audio #2
ID                                      : 3
Format                                  : E-AC-3
Format/Info                              : Enhanced AC-3
Commercial name                          : Dolby Digital Plus
Codec ID                                : A_EAC3
Duration                                : 2 h 4 min
Bit rate mode                            : Constant
Bit rate                                : 448 kb/s
Channel(s)                              : 6 channels
Channel layout                          : L R C LFE Ls Rs
Sampling rate                            : 48.0 kHz
Frame rate                              : 31.250 FPS (1536 SPF)
Compression mode                        : Lossy
Delay relative to video                  : 5 ms
Stream size                              : 398 MiB (9%)
Title                                    : Québécois 5.1 EAC3 448kbps 48khz 16bits
Language                                : French
Service kind                            : Complete Main
Default                                  : No
Forced                                  : No

Audio #3
ID                                      : 4
Format                                  : E-AC-3
Format/Info                              : Enhanced AC-3
Commercial name                          : Dolby Digital Plus
Codec ID                                : A_EAC3
Duration                                : 2 h 4 min
Bit rate mode                            : Constant
Bit rate                                : 448 kb/s
Channel(s)                              : 6 channels
Channel layout                          : L R C LFE Ls Rs
Sampling rate                            : 48.0 kHz
Frame rate                              : 31.250 FPS (1536 SPF)
Compression mode                        : Lossy
Delay relative to video                  : 5 ms
Stream size                              : 398 MiB (9%)
Title                                    : English 5.1 EAC3 448kbps 48khz 16bits
Language                                : English
Service kind                            : Complete Main
Default                                  : No
Forced                                  : No

Audio #4
ID                                      : 5
Format                                  : E-AC-3
Format/Info                              : Enhanced AC-3
Commercial name                          : Dolby Digital Plus
Codec ID                                : A_EAC3
Duration                                : 2 h 4 min
Bit rate mode                            : Constant
Bit rate                                : 128 kb/s
Channel(s)                              : 2 channels
Channel layout                          : L R
Sampling rate                            : 48.0 kHz
Frame rate                              : 31.250 FPS (1536 SPF)
Compression mode                        : Lossy
Delay relative to video                  : 5 ms
Stream size                              : 114 MiB (3%)
Title                                    : English comment 2.0 EAC3 128kbps 48khz 16bits
Language                                : English
Service kind                            : Complete Main
Default                                  : No
Forced                                  : No

Text #1
ID                                      : 6
Format                                  : UTF-8
Codec ID                                : S_TEXT/UTF8
Codec ID/Info                            : UTF-8 Plain Text
Duration                                : 2 h 4 min
Bit rate                                : 1 b/s
Count of elements                        : 40
Stream size                              : 1.44 KiB (0%)
Title                                    : Français forcé (Passages)
Language                                : French
Default                                  : Yes
Forced                                  : Yes

Text #2
ID                                      : 7
Format                                  : UTF-8
Codec ID                                : S_TEXT/UTF8
Codec ID/Info                            : UTF-8 Plain Text
Duration                                : 2 h 4 min
Bit rate                                : 47 b/s
Count of elements                        : 1235
Stream size                              : 43.3 KiB (0%)
Title                                    : Français complet (Tous le film)
Language                                : French
Default                                  : No
Forced                                  : No

Text #3
ID                                      : 8
Format                                  : PGS
Muxing mode                              : zlib
Codec ID                                : S_HDMV/PGS
Codec ID/Info                            : Picture based subtitle format used on BDs/HD-DVDs
Duration                                : 2 h 0 min
Bit rate                                : 124 b/s
Count of elements                        : 38
Stream size                              : 109 KiB (0%)
Title                                    : Français forcé (Passages) PGS
Language                                : French
Default                                  : No
Forced                                  : No

Text #4
ID                                      : 9
Format                                  : PGS
Muxing mode                              : zlib
Codec ID                                : S_HDMV/PGS
Codec ID/Info                            : Picture based subtitle format used on BDs/HD-DVDs
Duration                                : 2 h 2 min
Bit rate                                : 8 295 b/s
Count of elements                        : 2462
Stream size                              : 7.28 MiB (0%)
Title                                    : Français complet (Tous le film) PGS
Language                                : French
Default                                  : No
Forced                                  : No

Text #5
ID                                      : 10
Format                                  : PGS
Muxing mode                              : zlib
Codec ID                                : S_HDMV/PGS
Codec ID/Info                            : Picture based subtitle format used on BDs/HD-DVDs
Duration                                : 2 h 2 min
Bit rate                                : 8 163 b/s
Count of elements                        : 2408
Stream size                              : 7.16 MiB (0%)
Title                                    : English full (All the movie) PGS
Language                                : English
Default                                  : No
Forced                                  : No

Text #6
ID                                      : 11
Format                                  : PGS
Muxing mode                              : zlib
Codec ID                                : S_HDMV/PGS
Codec ID/Info                            : Picture based subtitle format used on BDs/HD-DVDs
Duration                                : 2 h 2 min
Bit rate                                : 9 294 b/s
Count of elements                        : 2732
Stream size                              : 8.16 MiB (0%)
Title                                    : English full SDH PGS
Language                                : English
Default                                  : No
Forced                                  : No

Menu
00:00:00.000                            : :01 - 00:00:00
00:08:12.158                            : :02 - 00:08:12
00:14:56.812                            : :03 - 00:14:56
00:24:21.543                            : :04 - 00:24:21
00:30:39.128                            : :05 - 00:30:39
00:38:39.859                            : :06 - 00:38:39
00:45:52.166                            : :07 - 00:45:52
00:51:58.156                            : :08 - 00:51:58
00:57:55.638                            : :09 - 00:57:55
01:03:59.293                            : :10 - 01:03:59
01:12:22.588                            : :11 - 01:12:22
01:19:10.662                            : :12 - 01:19:10
01:28:27.051                            : :13 - 01:28:27
01:33:53.002                            : :14 - 01:33:53
01:42:20.342                            : :15 - 01:42:20
01:50:45.055                            : :16 - 01:50:45
01:53:46.319                            : :17 - 01:53:46
01:56:20.420                            : :18 - 01:56:20
02:02:47.690                            : :19 - 02:02:47


Facebook Twitter Digg Reddit LinkedIn StumbleUpon Email
Show Demonoid some love with BitCoin: 1DNoidyJgB159bLJT5hDnCkZ4uQrhkfBVk How to get BitCoins?
Peers: 0 seeders, 0 leechers, 0 total - Updated: 1 month ago [ Update now ]
Size: 4.30 GB 

Sponsored links
Related torrents
Torrents you may also like:
Download this torrent
Extra information
Tracker: udp://tracker.opentrackr.org:1337/announce
Torrent hash: E925A8C8 512ACD30 FBAF12D9 93A2D166 CFAE74EB
Files described inside the torrent: 1 [ Click here to show the full list ]
Comments
No comments posted yet

Disclaimer: None of the files shown here are actually hosted or transmitted by this server. The links are provided solely by this site's users. The site moderation is also a service provided by the site's users. The administrator of this site (demonoid.is) cannot be held responsible for what its users post, or any other actions of its users. You may not use this site to distribute or download any material when you do not have the legal rights to do so. It is your own responsibility to adhere to these terms.

By using this site you indicate your agreement to our terms and conditions
   
Link to us | Contact us | API | Commemoration | Twitter: @DemonoidBT | Feeds/RSS | DMCA
This site and the Demonoid logo are Copyright © Demonoid. All rights reserved.

Show Demonoid some love with 1DNoidyJgB159bLJT5hDnCkZ4uQrhkfBVk