User log in
User registration
Registrations are closed. If you have an invitation code, click here, or join our twitter, we post invites often there.
Email: forgotten email?
Password: lost pass?
  Resend activation email
Protect your privacy! Use a VPN When Downloading Torrents
Your IP Address is . Location is .
Your Internet Provider is tracking your torrent activity! Hide your IP ADDRESS with a VPN!
We strongly recommend using NORD VPN to anonymize your torrenting.
Also, while you are using NORD you get No Ads for Demonoid members Get VPN Now!
Details for Captain America The Winter Soldier 2014 BR EAC3 VFF VFQ ENG 1080p x265 10Bits T0M (Captain America Le soldat de l'hiver, Capitaine America 2)
Created by Ratio: 1.00T0M 1 year ago[ Add to bookmark ]
Movies : Action : HEVC / x265 : French

______________________________________________________________________________________________________________
Captain America: The Winter Soldier 2014
Bluray · 1080 x265 10bits · DD+ 5.1 VFF VFQ ENG
¯¯¯¯¯¯¯¯¯¯¯¯¯¯¯¯¯¯¯¯¯¯¯¯¯¯¯¯¯¯¯¯¯¯¯¯¯¯¯¯¯¯¯¯¯¯¯¯¯¯¯¯¯¯¯¯¯¯¯¯¯¯¯¯¯¯¯¯¯¯¯¯¯¯¯¯¯¯¯¯



Year : 2014
Country : United States
French title : Captain America: Le soldat de l'hiver
Original title : Captain America: The Winter Soldier
Quebec title : Capitaine America : Le Soldat de l'hiver
Director : Anthony Russo, Joe Russo
Music from : Henry Jackman
Actors : Chris Evans, Samuel L. Jackson, Scarlett Johansson, Robert Redford, Sebastian Stan
Anthony Mackie, Cobie Smulders, Frank Grillo, Emily VanCamp, Hayley Atwell, Toby Jones, Jenny Agutter
Maximiliano Hernández, Georges St-Pierre, Callan Mulvey, Alan Dale, Chin Han, Bernard White
Genre : Super hero, Action, Adventure, Sci-Fi
Certificate :   All public
Budget : 170 000 000 $ · Recipe : 769 702 087 $ · ratio : 453 %
Link : Allociné 4,0/5 ·  IMDB 7,8/10 ·  TMDB 76% ·  SensCritique 6,0/10 ·  Wiki ·  Bande Annonce

French Plot
Après les événements cataclysmiques de New York de The Avengers, Steve Rogers aka Captain America vit tranquillement à Washington, D.C. et essaye de s'adapter au monde moderne. Mais quand un collègue du S.H.I.E.L.D. est attaqué, Steve se retrouve impliqué dans un réseau d'intrigues qui met le monde en danger. S'associant à Black Widow, Captain America lutte pour dénoncer une conspiration grandissante, tout en repoussant des tueurs professionnels envoyés pour le faire taire. Quand l'étendue du plan maléfique est révélée, Captain America et Black Widow sollicite l'aide d'un nouvel allié, le Faucon. Cependant, ils se retrouvent bientôt face à un inattendu et redoutable ennemi - le Soldat de l'Hiver.
Adaptations des : Marvel Comics 1939



Technical Details
¯¯¯¯¯¯¯¯¯¯¯¯¯¯¯¯¯¯¯¯¯¯¯¯¯¯¯¯¯¯¯¯¯¯¯¯¯¯¯¯¯¯¯¯¯¯¯¯¯¯¯¯¯¯¯¯¯¯¯¯¯¯¯¯¯¯¯¯¯¯¯¯¯¯¯¯¯¯¯¯¯¯¯¯¯¯¯¯¯¯¯¯¯¯¯¯¯¯¯¯
     
Media
Matroska 4,37Gio 2h15mn 4603Kbps
Video
HEVC/H265 1920x800 @23.976 [email protected]@Main 10bits 3050Kbps VerySlow
Audio
    True French 5.1 EAC3 448Kbps 48KHz 16bits
    Quebec French 5.1 EAC3 448Kbps 48KHz 16bits
    English 5.1 EAC3 448Kbps 48KHz 16bits
    English Commentary by Joe and Anthony Russo, Steve MacFeely and Chris Markus 2.0 EAC3 128Kbps 48KHz 16bits
Subtitles
  True French forced SRT
  True French full SRT
  True French forced PGS
  True French full PGS
  True French Commentary by Joe and Anthony Russo, Steve MacFeely and Chris Markus PGS
  Quebec French forced PGS
  Quebec French full PGS
  English forced PGS
    English full SDH PGS
  English Commentary by Joe and Anthony Russo, Steve MacFeely and Chris Markus PGS
Chapters
International,  True French,  English
Screenshot
     

NFO
¯¯¯¯¯¯¯¯¯¯¯¯¯¯¯¯¯¯¯¯¯¯¯¯¯¯¯¯¯¯¯¯¯¯¯¯¯¯¯¯¯¯¯¯¯¯¯¯¯¯¯¯¯¯¯¯¯¯¯¯¯¯¯¯¯¯¯¯¯¯¯¯¯¯¯¯¯¯¯¯¯¯¯¯¯¯¯¯¯¯¯¯¯¯¯¯¯¯¯¯

General
Format                                  : Matroska
Format version                          : Version 4
File size                                : 4.37 GiB
Duration                                : 2 h 15 min
Overall bit rate                        : 4 603 kb/s
Movie name                              : Captain America : Le soldat de l'hiver (Captain America : The Winter Soldier) 2014 de Anthony Russo, Joe Russo avec Chris Evans, Samuel L. Jackson, Scarlett Johansson, Robert Redford, Sebastian Stan, Anthony Mackie, Cobie Smulders, Frank Grillo, Emily VanCamp, Hayley Atwell, Toby Jones, Jenny Agutter, Maximiliano Hernández, Georges St-Pierre, Callan Mulvey, Alan Dale, Chin Han, Bernard White. Tout public (allocine=193113,imdb=tt1843866) T0M
Encoded date                            : UTC 2018-10-21 07:46:38
Writing application                      : mkvmerge v8.0.0 ('Til The Day That I Die') 64bit
Writing library                          : libebml v1.3.1 + libmatroska v1.4.2
Cover                                    : Yes
Attachments                              : Cover.jpg

Video
ID                                      : 1
Format                                  : HEVC
Format/Info                              : High Efficiency Video Coding
Format profile                          : Main [email protected]@Main
Codec ID                                : V_MPEGH/ISO/HEVC
Duration                                : 2 h 15 min
Bit rate                                : 3 050 kb/s
Width                                    : 1 920 pixels
Height                                  : 800 pixels
Display aspect ratio                    : 2.40:1
Frame rate mode                          : Constant
Frame rate                              : 23.976 (24000/1001) FPS
Color space                              : YUV
Chroma subsampling                      : 4:2:0
Bit depth                                : 10 bits
Bits/(Pixel*Frame)                      : 0.083
Stream size                              : 2.90 GiB (66%)
Title                                    : Video HEVC 1920x800 @23.976 x265 [email protected]@Main 10bits 3050kbps 2pass veryslow 2305mn
Writing library                          : x265 2.6:[Windows][GCC 7.3.0][64 bit] 10bit
Encoding settings                        : cpuid=1173503 / frame-threads=3 / numa-pools=8 / wpp / no-pmode / no-pme / no-psnr / no-ssim / log-level=2 / input-csp=1 / input-res=1920x800 / interlace=0 / total-frames=0 / level-idc=0 / high-tier=1 / uhd-bd=0 / ref=5 / no-allow-non-conformance / no-repeat-headers / annexb / no-aud / no-hrd / info / hash=0 / no-temporal-layers / open-gop / min-keyint=24 / keyint=240 / bframes=8 / b-adapt=2 / b-pyramid / bframe-bias=0 / rc-lookahead=40 / lookahead-slices=0 / scenecut=40 / no-intra-refresh / ctu=64 / min-cu-size=8 / rect / amp / max-tu-size=32 / tu-inter-depth=3 / tu-intra-depth=3 / limit-tu=4 / rdoq-level=2 / dynamic-rd=0.00 / no-ssim-rd / signhide / no-tskip / nr-intra=0 / nr-inter=0 / no-constrained-intra / strong-intra-smoothing / max-merge=4 / limit-refs=1 / limit-modes / me=3 / subme=4 / merange=57 / temporal-mvp / weightp / weightb / no-analyze-src-pics / deblock=0:0 / sao / no-sao-non-deblock / rd=6 / no-early-skip / rskip / no-fast-intra / no-tskip-fast / no-cu-lossless / b-intra / no-splitrd-skip / rdpenalty=0 / psy-rd=2.00 / psy-rdoq=1.00 / no-rd-refine / analysis-reuse-mode=0 / no-lossless / cbqpoffs=0 / crqpoffs=0 / rc=abr / bitrate=3050 / qcomp=0.60 / qpstep=4 / stats-write=0 / stats-Read=2 / cplxblur=20.0 / qblur=0.5 / ipratio=1.40 / pbratio=1.30 / aq-mode=1 / aq-strength=1.00 / cutree / zone-count=0 / no-strict-cbr / qg-size=32 / no-rc-grain / qpmax=69 / qpmin=0 / no-const-vbv / sar=1 / overscan=0 / videoformat=5 / range=0 / colorprim=1 / transfer=1 / colormatrix=1 / chromaloc=0 / display-window=0 / max-cll=0,0 / min-luma=0 / max-luma=1023 / log2-max-poc-lsb=8 / vui-timing-info / vui-hrd-info / slices=1 / no-opt-qp-pps / no-opt-ref-list-length-pps / no-multi-pass-opt-rps / scenecut-bias=0.05 / no-opt-cu-delta-qp / no-aq-motion / no-hdr / no-hdr-opt / no-dhdr10-opt / analysis-reuse-level=5 / scale-factor=0 / refine-intra=0 / refine-inter=0 / refine-mv=0 / no-limit-sao / ctu-info=0 / no-lowpass-dct / refine-mv-type=0 / copy-pic=1
Default                                  : Yes
Forced                                  : No
Color range                              : Limited
Color primaries                          : BT.709
Transfer characteristics                : BT.709
Matrix coefficients                      : BT.709

Audio #1
ID                                      : 2
Format                                  : E-AC-3
Format/Info                              : Enhanced AC-3
Commercial name                          : Dolby Digital Plus
Codec ID                                : A_EAC3
Duration                                : 2 h 15 min
Bit rate mode                            : Constant
Bit rate                                : 448 kb/s
Channel(s)                              : 6 channels
Channel layout                          : L R C LFE Ls Rs
Sampling rate                            : 48.0 kHz
Frame rate                              : 31.250 FPS (1536 SPF)
Compression mode                        : Lossy
Delay relative to video                  : 5 ms
Stream size                              : 435 MiB (10%)
Title                                    : Français 5.1 EAC3 448kbps 48khz 16bits
Language                                : French
Service kind                            : Complete Main
Default                                  : Yes
Forced                                  : No

Audio #2
ID                                      : 3
Format                                  : E-AC-3
Format/Info                              : Enhanced AC-3
Commercial name                          : Dolby Digital Plus
Codec ID                                : A_EAC3
Duration                                : 2 h 15 min
Bit rate mode                            : Constant
Bit rate                                : 448 kb/s
Channel(s)                              : 6 channels
Channel layout                          : L R C LFE Ls Rs
Sampling rate                            : 48.0 kHz
Frame rate                              : 31.250 FPS (1536 SPF)
Compression mode                        : Lossy
Delay relative to video                  : 5 ms
Stream size                              : 435 MiB (10%)
Title                                    : Québécois 5.1 EAC3 448kbps 48khz 16bits
Language                                : French
Service kind                            : Complete Main
Default                                  : No
Forced                                  : No

Audio #3
ID                                      : 4
Format                                  : E-AC-3
Format/Info                              : Enhanced AC-3
Commercial name                          : Dolby Digital Plus
Codec ID                                : A_EAC3
Duration                                : 2 h 15 min
Bit rate mode                            : Constant
Bit rate                                : 448 kb/s
Channel(s)                              : 6 channels
Channel layout                          : L R C LFE Ls Rs
Sampling rate                            : 48.0 kHz
Frame rate                              : 31.250 FPS (1536 SPF)
Compression mode                        : Lossy
Delay relative to video                  : 5 ms
Stream size                              : 435 MiB (10%)
Title                                    : English 5.1 EAC3 448kbps 48khz 16bits
Language                                : English
Service kind                            : Complete Main
Default                                  : No
Forced                                  : No

Audio #4
ID                                      : 5
Format                                  : E-AC-3
Format/Info                              : Enhanced AC-3
Commercial name                          : Dolby Digital Plus
Codec ID                                : A_EAC3
Duration                                : 2 h 15 min
Bit rate mode                            : Constant
Bit rate                                : 128 kb/s
Channel(s)                              : 2 channels
Channel layout                          : L R
Sampling rate                            : 48.0 kHz
Frame rate                              : 31.250 FPS (1536 SPF)
Compression mode                        : Lossy
Delay relative to video                  : 5 ms
Stream size                              : 124 MiB (3%)
Title                                    : English comment by Joe and Anthony Russo, Steve MacFeely and Chris Markus 2.0 EAC3 128kbps 48khz 16bits
Language                                : English
Service kind                            : Complete Main
Default                                  : No
Forced                                  : No

Text #1
ID                                      : 6
Format                                  : UTF-8
Codec ID                                : S_TEXT/UTF8
Codec ID/Info                            : UTF-8 Plain Text
Duration                                : 2 h 15 min
Bit rate                                : 1 b/s
Count of elements                        : 29
Stream size                              : 1.11 KiB (0%)
Title                                    : Français forcé (Passages)
Language                                : French
Default                                  : Yes
Forced                                  : Yes

Text #2
ID                                      : 7
Format                                  : UTF-8
Codec ID                                : S_TEXT/UTF8
Codec ID/Info                            : UTF-8 Plain Text
Duration                                : 2 h 15 min
Bit rate                                : 40 b/s
Count of elements                        : 1469
Stream size                              : 40.1 KiB (0%)
Title                                    : Français complet (Tous le film)
Language                                : French
Default                                  : No
Forced                                  : No

Text #3
ID                                      : 8
Format                                  : PGS
Muxing mode                              : zlib
Codec ID                                : S_HDMV/PGS
Codec ID/Info                            : Picture based subtitle format used on BDs/HD-DVDs
Duration                                : 2 h 12 min
Bit rate                                : 56 b/s
Count of elements                        : 18
Stream size                              : 55.0 KiB (0%)
Title                                    : Français forcé (Passages) PGS
Language                                : French
Default                                  : No
Forced                                  : Yes

Text #4
ID                                      : 9
Format                                  : PGS
Muxing mode                              : zlib
Codec ID                                : S_HDMV/PGS
Codec ID/Info                            : Picture based subtitle format used on BDs/HD-DVDs
Duration                                : 2 h 14 min
Bit rate                                : 7 881 b/s
Count of elements                        : 2934
Stream size                              : 7.61 MiB (0%)
Title                                    : Français complet (Tous le film) PGS
Language                                : French
Default                                  : No
Forced                                  : No

Text #5
ID                                      : 10
Format                                  : PGS
Muxing mode                              : zlib
Codec ID                                : S_HDMV/PGS
Codec ID/Info                            : Picture based subtitle format used on BDs/HD-DVDs
Duration                                : 2 h 15 min
Bit rate                                : 21.8 kb/s
Count of elements                        : 5090
Stream size                              : 21.2 MiB (0%)
Title                                    : Français commentaire de Joe et Anthony Russo, Steve MacFeely et Chris Markus PGS
Language                                : French
Default                                  : No
Forced                                  : No

Text #6
ID                                      : 11
Format                                  : PGS
Muxing mode                              : zlib
Codec ID                                : S_HDMV/PGS
Codec ID/Info                            : Picture based subtitle format used on BDs/HD-DVDs
Duration                                : 2 h 12 min
Bit rate                                : 119 b/s
Count of elements                        : 32
Stream size                              : 115 KiB (0%)
Title                                    : Québécois forcé (Passages) PGS
Language                                : French
Default                                  : No
Forced                                  : No

Text #7
ID                                      : 12
Format                                  : PGS
Muxing mode                              : zlib
Codec ID                                : S_HDMV/PGS
Codec ID/Info                            : Picture based subtitle format used on BDs/HD-DVDs
Duration                                : 2 h 14 min
Bit rate                                : 9 225 b/s
Count of elements                        : 2994
Stream size                              : 8.91 MiB (0%)
Title                                    : Québécois complet (Tous le film) PGS
Language                                : French
Default                                  : No
Forced                                  : No

Text #8
ID                                      : 13
Format                                  : PGS
Muxing mode                              : zlib
Codec ID                                : S_HDMV/PGS
Codec ID/Info                            : Picture based subtitle format used on BDs/HD-DVDs
Duration                                : 1 h 12 min
Bit rate                                : 218 b/s
Count of elements                        : 56
Stream size                              : 116 KiB (0%)
Title                                    : English forced PGS
Language                                : English
Default                                  : No
Forced                                  : No

Text #9
ID                                      : 14
Format                                  : PGS
Muxing mode                              : zlib
Codec ID                                : S_HDMV/PGS
Codec ID/Info                            : Picture based subtitle format used on BDs/HD-DVDs
Duration                                : 2 h 8 min
Bit rate                                : 10.9 kb/s
Count of elements                        : 3300
Stream size                              : 10.1 MiB (0%)
Title                                    : English full SDH PGS
Language                                : English
Default                                  : No
Forced                                  : No

Text #10
ID                                      : 15
Format                                  : PGS
Muxing mode                              : zlib
Codec ID                                : S_HDMV/PGS
Codec ID/Info                            : Picture based subtitle format used on BDs/HD-DVDs
Duration                                : 2 h 15 min
Bit rate                                : 25.5 kb/s
Count of elements                        : 5439
Stream size                              : 24.8 MiB (1%)
Title                                    : English comment by Joe and Anthony Russo, Steve MacFeely and Chris Markus PGS
Language                                : English
Default                                  : No
Forced                                  : No

Menu
00:00:00.000                            : :01 - 00:00:00 - frrologue - enrologue
00:03:28.666                            : :02 - 00:03:28 - fr:Otages du Lemurian Star - en:Hostages on the Lemurian Star
00:13:31.727                            : :03 - 00:13:31 - fr:Ne retiens pas ton souffle - enon't Hold Your Breath
00:17:57.868                            : :04 - 00:17:57 - fr:Steve au Smithsonian Museum - en:Steve Visits the Smithsonian
00:22:25.302                            : :05 - 00:22:25 - fr:Le projet Insight - enroject Insight
00:33:20.415                            : :06 - 00:33:20 - froursuite - en:In Pursuit
00:41:27.276                            : :07 - 00:41:27 - fr:Steve et Alexander Pierce - en:Steve Meets Alexander Pierce
00:51:37.302                            : :08 - 00:51:37 - fr:Fugitifs du S.H.I.E.L.D. - en:Fugitives from S.H.I.E.L.D.
00:58:23.958                            : :09 - 00:58:23 - fr:En quête du passé - en:Uncovering the Past
01:07:40.347                            : :10 - 01:07:40 - fr:Appelez ça un CV - en:Call It a Resume
01:16:22.202                            : :11 - 01:16:22 - fr:Faire face au soldat de l'hiver - en:Facing Off with the Winter Soldier
01:24:43.078                            : :12 - 01:24:43 - fr:Les ordres du captaine - en:Captain's Orders
01:32:17.698                            : :13 - 01:32:17 - fr:La liberté à un prix - enaying a Price
01:37:06.612                            : :14 - 01:37:06 - fr:Engageant - en:Engaging
01:49:13.088                            : :15 - 01:49:13 - fr:Le bout de la ligne - en:The End of the Line
01:55:03.730                            : :16 - 01:55:03 - fr:Bataille du Potomac - en:Battle over the Potomac
02:01:11.055                            : :17 - 02:01:11 - fr:Une vie après S.H.I.E.L.D. - en:Life After S.H.I.E.L.D.
02:06:22.241                            : :18 - 02:06:22 - fr:Générique - en:Credits
02:08:17.890                            : :19 - 02:08:17 - fr:Scène bonus - en:Bonus Scene
02:09:46.970                            : :20 - 02:09:46 - fr:Générique final - en:End Credits
02:15:02.600                            : :21 - 02:15:02 - fr:Scène bonus finale - en:End Bonus Scene


Facebook Twitter Digg Reddit LinkedIn StumbleUpon Email
Show Demonoid some love with BitCoin: 1DNoidyJgB159bLJT5hDnCkZ4uQrhkfBVk How to get BitCoins?
Peers: 0 seeders, 0 leechers, 0 total - Updated: 2 months ago [ Update now ]
Size: 4.37 GB 

Sponsored links
Related torrents
Torrents you may also like:
Download this torrent
Extra information
Tracker: udp://tracker.opentrackr.org:1337/announce
Torrent hash: A49DE7D9 FC457917 3164CA80 BB7C3D4C BAA64183
Files described inside the torrent: 1 [ Click here to show the full list ]
Comments
No comments posted yet

Disclaimer: None of the files shown here are actually hosted or transmitted by this server. The links are provided solely by this site's users. The site moderation is also a service provided by the site's users. The administrator of this site (demonoid.is) cannot be held responsible for what its users post, or any other actions of its users. You may not use this site to distribute or download any material when you do not have the legal rights to do so. It is your own responsibility to adhere to these terms.

By using this site you indicate your agreement to our terms and conditions
   
Link to us | Contact us | API | Commemoration | Twitter: @DemonoidBT | Feeds/RSS | DMCA
This site and the Demonoid logo are Copyright © Demonoid. All rights reserved.

Show Demonoid some love with 1DNoidyJgB159bLJT5hDnCkZ4uQrhkfBVk