Demonoid
Demonoid
User log in
User registration
Registrations are closed. If you
have an invitation code, click
here
Email: forgotten email?
Password: lost pass?
  Resend activation email
Protect your privacy! Use a VPN When Downloading Torrents
Your country is United States of America. Your IP Address is 34.237.51.35.
Your Internet Provider is tracking your torrent activity! Hide your IP ADDRESS with a VPN!
We strongly recommend using NORD VPN to anonymize your torrenting.
Special sale: -70% off for Demonoid users! Also, while you are using NORD you get No Ads for Demonoid members Get VPN Now!
Details for "Strictly It Takes Two S17E35 (1280x720p HD, 50fps, soft Eng subs)"
Created by Ratio: 1.00ElsonRoa 8 days ago
TV : Reality : HD 720p : English
Strictly It Takes Two S17E35 (1280x720p HD, 50fps, soft Eng subs)

Zoe Ball and Rylan Clark-Neal present the one-hour Friday show, packed with exclusive interviews and behind-the-scenes gossip. Celebrity superfans give us their verdict on our couples. Gethin Jones reports from the Strictly studios in Elstree with the latest news from rehearsals, and there is a live music performance in the It Takes Two studio

First broadcast:  8 November 2019
Duration: 1 hour  

Torrent dead? Request reseed at torrentgalaxy.org - or ask at elsonroa at tutanota.com  



Media info:-
General
Format : MPEG-4
Format profile : Base Media
Codec ID : isom (isom/iso2/avc1/mp41)
File size : 2.15 GiB
Duration : 59mn 15s
Overall bit rate mode : Variable
Overall bit rate : 5 205 Kbps

Video
ID : 1
Format : AVC
Format/Info : Advanced Video Codec
Format profile : [email protected]
Format settings, CABAC : Yes
Format settings, ReFrames : 2 frames
Codec ID : avc1
Codec ID/Info : Advanced Video Coding
Duration : 59mn 15s
Bit rate : 5 065 Kbps
Width : 1 280 pixels
Height : 720 pixels
Display aspect ratio : 16:9
Frame rate mode : Variable
Frame rate : 50.000 fps
Minimum frame rate : 25.000 fps
Maximum frame rate : 90 000.000 fps
Standard : Component
Color space : YUV
Chroma subsampling : 4:2:0
Bit depth : 8 bits
Scan type : Progressive
Bits/(Pixel*Frame) : 0.110
Stream size : 2.10 GiB (97%)
Encoded date : UTC 1904-01-01 00:00:00
Tagged date : UTC 1904-01-01 00:00:00
Color range : Limited
Color primaries : BT.709
Transfer characteristics : BT.709
Matrix coefficients : BT.709

Audio
ID : 2
Format : AAC
Format/Info : Advanced Audio Codec
Format profile : LC
Codec ID : 40
Duration : 59mn 15s
Bit rate mode : Variable
Bit rate : 125 Kbps
Maximum bit rate : 142 Kbps
Channel(s) : 2 channels
Channel positions : Front: L R
Sampling rate : 48.0 KHz
Frame rate : 46.875 fps (1024 spf)
Compression mode : Lossy
Stream size : 53.1 MiB (2%)
Language : English

Facebook Twitter Digg Reddit LinkedIn StumbleUpon Email
Show Demonoid some love with BitCoin: 1DNoidoGGLpbjHUbnsWt7FM6UAmEzLs18B How to get BitCoins?
Peers: 1 seeders, 0 leechers, 0 total - Updated: 8 days ago [ Update now ]
Size: 2.31 GB 

Sponsored links
Loading...
Related torrents
Torrents you may also like:
Download this torrent
Extra information
Tracker: udp://tracker.leechers-paradise.org:6969/announce
Torrent hash: 2310B77B6BFDCEE099EEEA734A603780F094ABBD
Files described inside the torrent:[ Click here to show the full list ]
Comments
No comments posted yet
Loading...

Disclaimer: None of the files shown here are actually hosted or transmitted by this server. The links are provided solely by this site's users. The site moderation is also a service provided by the site's users. The administrator of this site (demonoid.is) cannot be held responsible for what its users post, or any other actions of its users. You may not use this site to distribute or download any material when you do not have the legal rights to do so. It is your own responsibility to adhere to these terms.

By using this site you indicate your agreement to our terms and conditions
   
Link to us | Contact us | API | Commemoration | Feeds/RSS | DMCA
This site and the Demonoid logo are Copyright © Demonoid. All rights reserved.

Show Demonoid some love with 1DNoidoGGLpbjHUbnsWt7FM6UAmEzLs18B