Demonoid
Demonoid
User log in
User registration
Registrations are closed. If you
have an invitation code, click
here
Email: forgotten email?
Password: lost pass?
  Resend activation email
Protect your privacy! Use a VPN When Downloading Torrents
Your country is United States of America. Your IP Address is 34.237.51.35.
Your Internet Provider is tracking your torrent activity! Hide your IP ADDRESS with a VPN!
We strongly recommend using NORD VPN to anonymize your torrenting.
Special sale: -70% off for Demonoid users! Also, while you are using NORD you get No Ads for Demonoid members Get VPN Now!
Details for "Disciples Of The 36Th Chamber 1985 x264 720p Esub BluRay Dual Audio English Hindi GOPISAHI"
Created by Ratio: 1.00gopisahi 8 days ago
Movies : Action : HD 720p : English
https://www.gopisahi.in/


Disciples Of The 36Th Chamber 1985 x264 720p Esub BluRay Dual Audio English Hindi GOPISAHI



Format                         : Matroska

Format version                 : Version 4

File size                      : 732 MiB

Duration                       : 1 h 33 min

Overall bit rate               : 1 095 kb/s

Movie name                     : Disciples of The 36th Chamber 1985 GOPISAHI


Video

Format                         : AVC

Format/Info                    : Advanced Video Codec

Format profile                 : [email protected]

Format settings                : CABAC / 12 Ref Frames

Format settings, CABAC         : Yes

Format settings, Reference fra : 12 frames

Codec ID                       : V_MPEG4/ISO/AVC

Duration                       : 1 h 33 min

Bit rate                       : 899 kb/s

Width                          : 1 280 pixels

Height                         : 534 pixels

Display aspect ratio           : 2.40:1

Frame rate mode                : Constant

Frame rate                     : 24.000 FPS

Color space                    : YUV

Chroma subsampling             : 4:2:0

Bit depth                      : 8 bits

Scan type                      : Progressive

Bits/(Pixel*Frame)             : 0.055

Stream size                    : 601 MiB (82%)

Title                          : GOPISAHI

Writing library                : x264 core 157 r2935 545de2f


Audio #1

Format                         : AAC LC

Duration                       : 1 h 33 min

Bit rate                       : 96.0 kb/s

Channel(s)                     : 2 channels

Channel layout                 : L R

Sampling rate                  : 48.0 kHz

Frame rate                     : 46.875 FPS (1024 SPF)

Compression mode               : Lossy

Delay relative to video        : -21 ms

Stream size                    : 64.5 MiB (9%)

Title                          : GOPISAHI

Language                       : Hindi


Audio #2

Format                         : AAC LC

Duration                       : 1 h 33 min

Bit rate                       : 96.0 kb/s

Channel(s)                     : 2 channels

Channel layout                 : L R

Sampling rate                  : 48.0 kHz

Frame rate                     : 46.875 FPS (1024 SPF)

Compression mode               : Lossy

Delay relative to video        : -21 ms

Stream size                    : 64.5 MiB (9%)

Title                          : GOPISAHI

Language                       : English


Text

Language                       : English





Facebook Twitter Digg Reddit LinkedIn StumbleUpon Email
Show Demonoid some love with BitCoin: 1DNoidoGGLpbjHUbnsWt7FM6UAmEzLs18B How to get BitCoins?
Peers: 1 seeders, 5 leechers, 51 total - Updated: 5 days ago [ Update now ]
Size: 767.18 MB 

Sponsored links
Loading...
Related torrents
Torrents you may also like:
No similar torrents found.
Download this torrent
Extra information
Tracker: udp://tracker.coppersurfer.tk:6969/announce
Torrent hash: 876EDADF933A12D866FA3785E276E50CA65BBBFB
Files described inside the torrent:[ Click here to show the full list ]
Comments
No comments posted yet
Loading...

Disclaimer: None of the files shown here are actually hosted or transmitted by this server. The links are provided solely by this site's users. The site moderation is also a service provided by the site's users. The administrator of this site (demonoid.is) cannot be held responsible for what its users post, or any other actions of its users. You may not use this site to distribute or download any material when you do not have the legal rights to do so. It is your own responsibility to adhere to these terms.

By using this site you indicate your agreement to our terms and conditions
   
Link to us | Contact us | API | Commemoration | Feeds/RSS | DMCA
This site and the Demonoid logo are Copyright © Demonoid. All rights reserved.

Show Demonoid some love with 1DNoidoGGLpbjHUbnsWt7FM6UAmEzLs18B