Demonoid.is
Demonoid.is
User log in
User registration
Registrations are open
Click here to register
Email: forgotten email?
Password: lost pass?
  Resend activation email
Protect your privacy! Use a VPN When Downloading Torrents
Your country is United States of America. Your IP Address is 34.232.62.209.
Your Internet Provider is tracking your torrent activity! Hide your IP ADDRESS with a VPN!
We strongly recommend using NORD VPN to anonymize your torrenting.
Also, while you are using NORD you get No Ads for Demonoid members Get VPN Now! (70% off)
Details for Five Superfighters (1979) x264 720p Esub BluRay Dual Audio Chinese Hindi GOPISAHI
Created by Ratio: 1.00gopisahi 7 months ago
Movies : Action : HD 720p : Hindi
https://www.gopisahi.in/



Five Superfighters 1979 x264 720p Esub BluRay Dual Audio Chinese Hindi GOPISAHI



Format                         : Matroska

Format version                 : Version 4

File size                      : 746 MiB

Duration                       : 1 h 35 min

Overall bit rate               : 1 095 kb/s

Movie name                     : Five Superfighters 1979 GOPISAHI


Video

Format                         : AVC

Format/Info                    : Advanced Video Codec

Format profile                 : [email protected]

Format settings                : CABAC / 12 Ref Frames

Format settings, CABAC         : Yes

Format settings, Reference fra : 12 frames

Codec ID                       : V_MPEG4/ISO/AVC

Duration                       : 1 h 35 min

Bit rate                       : 899 kb/s

Width                          : 1 256 pixels

Height                         : 534 pixels

Display aspect ratio           : 2.35:1

Frame rate mode                : Constant

Frame rate                     : 25.000 FPS

Color space                    : YUV

Chroma subsampling             : 4:2:0

Bit depth                      : 8 bits

Scan type                      : Progressive

Bits/(Pixel*Frame)             : 0.054

Stream size                    : 612 MiB (82%)

Title                          : GOPISAHI

Writing library                : x264 core 157 r2935 545de2f


Audio #1

Format                         : AAC LC

Duration                       : 1 h 35 min

Bit rate                       : 96.0 kb/s

Channel(s)                     : 2 channels

Channel layout                 : L R

Sampling rate                  : 48.0 kHz

Frame rate                     : 46.875 FPS (1024 SPF)

Compression mode               : Lossy

Delay relative to video        : -21 ms

Stream size                    : 65.7 MiB (9%)

Title                          : GOPISAHI

Language                       : Hindi


Audio #2

Format                         : AAC LC

Duration                       : 1 h 35 min

Bit rate                       : 96.0 kb/s

Channel(s)                     : 2 channels

Channel layout                 : L R

Sampling rate                  : 48.0 kHz

Frame rate                     : 46.875 FPS (1024 SPF)

Compression mode               : Lossy

Delay relative to video        : -21 ms

Stream size                    : 65.6 MiB (9%)

Title                          : GOPISAHI

Language                       : Chinese


Text

Language                       : English





Facebook Twitter Digg Reddit LinkedIn StumbleUpon Email
Show Demonoid some love with BitCoin: 1DNoidyJgB159bLJT5hDnCkZ4uQrhkfBVk How to get BitCoins?
Size: 745.52 MB 

Sponsored links
Loading...
Related torrents
Torrents you may also like:
No related torrents found.
Download this torrent
Extra information
Tracker: udp://tracker.coppersurfer.tk:6969/announce
Rate this torrent: [ Total: 0 ]
  • This torrent is not rated yet
  • 1
  • 2
  • 3
  • 4
  • 5
Files described inside the torrent:1 [ Click here to show the full list ]
Comments
No comments posted yet
Loading...

Disclaimer: None of the files shown here are actually hosted or transmitted by this server. The links are provided solely by this site's users. The site moderation is also a service provided by the site's users. The administrator of this site (demonoid.is) cannot be held responsible for what its users post, or any other actions of its users. You may not use this site to distribute or download any material when you do not have the legal rights to do so. It is your own responsibility to adhere to these terms.

By using this site you indicate your agreement to our terms and conditions
   
Link to us | Contact us | API | Commemoration | Feeds/RSS | DMCA
This site and the Demonoid logo are Copyright © Demonoid. All rights reserved.

Show Demonoid some love with 1DNoidyJgB159bLJT5hDnCkZ4uQrhkfBVk