Demonoid
Demonoid
User log in
User registration
Registrations are closed. If you
have an invitation code, click
here
Email: forgotten email?
Password: lost pass?
  Resend activation email
Protect your privacy! Use a VPN When Downloading Torrents
Your country is United States of America. Your IP Address is 3.234.214.179.
Your Internet Provider is tracking your torrent activity! Hide your IP ADDRESS with a VPN!
We strongly recommend using NORD VPN to anonymize your torrenting.
Special: Save 80% off + 3 months FREE for Demonoid users! Also, while you are using NORD you get No Ads for Demonoid members Get VPN Now!
Details for "Housefull 4 (2019) Hindi 720p HDCAM x264.⭐No ADS⭐. AC3 Shadow [HDWebmovies]"
Created by Ratio: 1.00kayl1337 29 days ago
Movies : Comedy : HD 720p : Hindi




Housefull 4 (2019) Hindi 720p

HDCAM x264 AC3 Shadow [HDWebmovies]








Movie Info


Name - Housefull 4 (2019)


Duration :2h 25min


Storyline - A set of three brothers are due to marry a set of three sisters, until one of the

brothers starts to realize that they are all reincarnations from 600 years earlier and the wrong couples are about to get married.

IMDB : https://www.imdb.com/title/tt7721946/


Directors:  Farhad Samji


Stars : Akshay Kumar, Riteish Deshmukh, Bobby Deol


Release date :   25 October 2019 (UK)

File size : 1.05 GB


Encoded by Team ClouD9


Credit goes to  - Team Shàdów (HDwebmovies)





General
Unique ID                                : 129140220091419079512127171930657119083 (0x6127806EBF84D8859E5A39FCEE97DB6B)
Complete name                            : Housefull 4 (2019) Hindi 720p HDCAM x264 AC3 Shadow [HDWebmovies].mkv
Format                                   : Matroska
Format version                           : Version 4
File size                                : 1.05 GiB
Duration                                 : 2 h 12 min
Overall bit rate                         : 1 132 kb/s
Writing application                      : Lavf55.33.100
Writing library                          : Lavf55.33.100

Video
ID                                       : 1
Format                                   : AVC
Format/Info                              : Advanced Video Codec
Format profile                           : [email protected]
Format settings                          : CABAC / 4 Ref Frames
Format settings, CABAC                   : Yes
Format settings, Reference frames        : 4 frames
Codec ID                                 : V_MPEG4/ISO/AVC
Duration                                 : 2 h 12 min
Bit rate                                 : 1 000 kb/s
Width                                    : 1 280 pixels
Height                                   : 720 pixels
Display aspect ratio                     : 16:9
Frame rate mode                          : Constant
Frame rate                               : 24.000 FPS
Color space                              : YUV
Chroma subsampling                       : 4:2:0
Bit depth                                : 8 bits
Scan type                                : Progressive
Bits/(Pixel*Frame)                       : 0.045
Stream size                              : 932 MiB (87%)
Writing library                          : x264 core 132
Encoding settings                        : cabac=1 / ref=1 / deblock=1:0:0 / analyse=0x3:0x113 / me=hex / subme=2 / psy=1 / psy_rd=1.00:0.00 / mixed_ref=0 / me_range=16 / chroma_me=1 / trellis=1 / 8x8dct=1 / cqm=0 / deadzone=21,11 / fast_pskip=1 / chroma_qp_offset=0 / threads=2 / lookahead_threads=1 / sliced_threads=0 / nr=0 / decimate=1 / interlaced=0 / bluray_compat=0 / constrained_intra=0 / bframes=2 / b_pyramid=2 / b_adapt=1 / b_bias=0 / direct=1 / weightb=1 / open_gop=0 / weightp=1 / keyint=25 / keyint_min=13 / scenecut=40 / intra_refresh=0 / rc=abr / mbtree=0 / bitrate=1000 / ratetol=0.1 / qcomp=0.60 / qpmin=1 / qpmax=35 / qpstep=2 / ip_ratio=1.40 / pb_ratio=1.30 / aq=1:1.00
Default                                  : Yes
Forced                                   : No

Audio
ID                                       : 2
Format                                   : AC-3
Format/Info                              : Audio Coding 3
Commercial name                          : Dolby Digital
Codec ID                                 : A_AC3
Duration                                 : 2 h 12 min
Bit rate mode                            : Constant
Bit rate                                 : 128 kb/s
Channel(s)                               : 2 channels
Channel layout                           : L R
Sampling rate                            : 48.0 kHz
Frame rate                               : 31.250 FPS (1536 SPF)
Bit depth                                : 32 bits
Compression mode                         : Lossy
Delay relative to video                  : -84 ms
Stream size                              : 122 MiB (11%)
Service kind                             : Complete Main
Default                                  : Yes
Forced                                   : No









Facebook Twitter Digg Reddit LinkedIn StumbleUpon Email
Show Demonoid some love with BitCoin: 1DNoidoGGLpbjHUbnsWt7FM6UAmEzLs18B How to get BitCoins?
Size: 1.13 GB 

Sponsored links
Loading...
Related torrents
Torrents you may also like:
Download this torrent
Extra information
Tracker: udp://tracker.coppersurfer.tk:6969/announce
Last seeder activity: 3 days ago
Files described inside the torrent:1 [ Click here to show the full list]
Comments
No comments posted yet
Loading...

Disclaimer: None of the files shown here are actually hosted or transmitted by this server. The links are provided solely by this site's users. The site moderation is also a service provided by the site's users. The administrator of this site (demonoid.is) cannot be held responsible for what its users post, or any other actions of its users. You may not use this site to distribute or download any material when you do not have the legal rights to do so. It is your own responsibility to adhere to these terms.

By using this site you indicate your agreement to our terms and conditions
   
Link to us | Contact us | API | Commemoration | Feeds/RSS | DMCA
This site and the Demonoid logo are Copyright © Demonoid. All rights reserved.

Show Demonoid some love with 1DNoidoGGLpbjHUbnsWt7FM6UAmEzLs18B