Demonoid
Demonoid
User log in
User registration
Registrations are closed. If you
have an invitation code, click
here
Email: forgotten email?
Password: lost pass?
  Resend activation email
Protect your privacy! Use a VPN When Downloading Torrents
Your country is United States of America. Your IP Address is 3.234.214.179.
Your Internet Provider is tracking your torrent activity! Hide your IP ADDRESS with a VPN!
We strongly recommend using NORD VPN to anonymize your torrenting.
Special: Save 80% off + 3 months FREE for Demonoid users! Also, while you are using NORD you get No Ads for Demonoid members Get VPN Now!
Details for "The Mandalorian S01E02 [720p WEB-DL H264[ [ENG / Napisy PL]"
Created by Ratio: 1.00elladajarek 25 days ago
TV : Fantasy : WEB : English



Gatunek: Akcja, Przygodowy, Sci-Fi, Fantasy
Produkcja: USA
Stacja telewizyjna: Disney+
Data premiery serialu: 12.11.2019 - Świat
Twórcy: Jon Favreau

Po historiach Jango i Boba Fettów w uniwersum Gwiezdnych Wojen pojawia się kolejny wojownik. The Mandalorian jest osadzony po upadku Imperium i przed ujawnieniem się Najwyższego Porządku. Jest to opowieść o samotnym rewolwerowcu osadzona w odległych zakątkach galaktyki daleko od wpływów Nowej Republiki…

Obsada
-------

Pedro Pascal ... The Mandalorian
Gina Carano ... Cara Dune
Nick Nolte ... Kuill
Giancarlo Esposito ... Mof Gideon
Werner Herzog ... The Client
Carl Weathers ... Greef Carga
Emily Swallow ... The Armorer
Omid Abtahi ... Dr. Pershing

Dane Techniczne
---------------

Format : Matroska
Format version : Version 4
File size : 994 MiB
Duration : 30 min 56 s
Overall bit rate mode : Variable
Overall bit rate : 4 493 kb/s
Encoded date : UTC 2019-11-15 12:09:22
Writing application : mkvmerge v30.1.0 ('Forever And More') 64-bit
Writing library : libebml v1.3.6 + libmatroska v1.4.9

Video
ID : 1
Format : AVC
Format/Info : Advanced Video Codec
Format profile : [email protected]
Format settings : CABAC / 4 Ref Frames
Format settings, CABAC : Yes
Format settings, Reference fra : 4 frames
Codec ID : V_MPEG4/ISO/AVC
Duration : 30 min 56 s
Bit rate mode : Variable
Bit rate : 4 234 kb/s
Maximum bit rate : 6 375 kb/s
Width : 1 280 pixels
Height : 720 pixels
Display aspect ratio : 16:9
Frame rate mode : Constant
Frame rate : 23.976 (24000/1001) FPS
Color space : YUV
Chroma subsampling : 4:2:0
Bit depth : 8 bits
Scan type : Progressive
Bits/(Pixel*Frame) : 0.192
Stream size : 937 MiB (94%)
Language : English
Default : Yes
Forced : No
Color range : Limited
Color primaries : BT.709
Transfer characteristics : BT.709
Matrix coefficients : BT.709

Audio
ID : 2
Format : E-AC-3
Format/Info : Enhanced AC-3
Commercial name : Dolby Digital Plus
Codec ID : A_EAC3
Duration : 30 min 56 s
Bit rate mode : Constant
Bit rate : 256 kb/s
Channel(s) : 6 channels
Channel layout : L R C LFE Ls Rs
Sampling rate : 48.0 kHz
Frame rate : 31.250 FPS (1536 SPF)
Compression mode : Lossy
Stream size : 56.7 MiB (6%)
Language : English
Service kind : Complete Main
Default : Yes
Forced : No

Text #1
ID : 3
Format : UTF-8
Codec ID : S_TEXT/UTF8
Codec ID/Info : UTF-8 Plain Text
Duration : 30 min 42 s
Bit rate : 11 b/s
Count of elements : 73
Stream size : 2.57 KiB (0%)
Title : Dansk
Language : Danish
Default : No
Forced : No

Text #2
ID : 4
Format : UTF-8
Codec ID : S_TEXT/UTF8
Codec ID/Info : UTF-8 Plain Text
Duration : 30 min 36 s
Bit rate : 11 b/s
Count of elements : 95
Stream size : 2.64 KiB (0%)
Title : Deutsch
Language : German
Default : No
Forced : No

Text #3
ID : 5
Format : UTF-8
Codec ID : S_TEXT/UTF8
Codec ID/Info : UTF-8 Plain Text
Duration : 28 min 3 s
Bit rate : 23 b/s
Count of elements : 209
Stream size : 4.80 KiB (0%)
Title : English [CC]
Language : English
Default : No
Forced : No

Text #4
ID : 6
Format : UTF-8
Codec ID : S_TEXT/UTF8
Codec ID/Info : UTF-8 Plain Text
Duration : 30 min 42 s
Bit rate : 10 b/s
Count of elements : 90
Stream size : 2.38 KiB (0%)
Title : Español
Language : Spanish
Default : No
Forced : No

Text #5
ID : 7
Format : UTF-8
Codec ID : S_TEXT/UTF8
Codec ID/Info : UTF-8 Plain Text
Duration : 30 min 36 s
Bit rate : 11 b/s
Count of elements : 88
Stream size : 2.48 KiB (0%)
Title : Français
Language : French
Default : No
Forced : No

Text #6
ID : 8
Format : UTF-8
Codec ID : S_TEXT/UTF8
Codec ID/Info : UTF-8 Plain Text
Duration : 30 min 42 s
Bit rate : 11 b/s
Count of elements : 90
Stream size : 2.49 KiB (0%)
Title : Italiano
Language : Italian
Default : No
Forced : No

Text #7
ID : 9
Format : UTF-8
Codec ID : S_TEXT/UTF8
Codec ID/Info : UTF-8 Plain Text
Duration : 30 min 48 s
Bit rate : 10 b/s
Count of elements : 81
Stream size : 2.46 KiB (0%)
Title : Nederlands
Language : Dutch
Default : No
Forced : No

Text #8
ID : 10
Format : UTF-8
Codec ID : S_TEXT/UTF8
Codec ID/Info : UTF-8 Plain Text
Duration : 30 min 42 s
Bit rate : 10 b/s
Count of elements : 90
Stream size : 2.25 KiB (0%)
Title : Norsk
Language : Norwegian
Default : No
Forced : No

Text #9
ID : 11
Format : UTF-8
Codec ID : S_TEXT/UTF8
Codec ID/Info : UTF-8 Plain Text
Duration : 30 min 36 s
Bit rate : 11 b/s
Count of elements : 90
Stream size : 2.55 KiB (0%)
Title : Polski
Language : Polish
Default : No
Forced : No

Text #10
ID : 12
Format : UTF-8
Codec ID : S_TEXT/UTF8
Codec ID/Info : UTF-8 Plain Text
Duration : 30 min 42 s
Bit rate : 11 b/s
Count of elements : 90
Stream size : 2.48 KiB (0%)
Title : Português
Language : Portuguese
Default : No
Forced : No

Text #11
ID : 13
Format : UTF-8
Codec ID : S_TEXT/UTF8
Codec ID/Info : UTF-8 Plain Text
Duration : 30 min 42 s
Bit rate : 11 b/s
Count of elements : 90
Stream size : 2.55 KiB (0%)
Title : Português (Brasil)
Language : Portuguese
Default : No
Forced : No

Text #12
ID : 14
Format : UTF-8
Codec ID : S_TEXT/UTF8
Codec ID/Info : UTF-8 Plain Text
Duration : 30 min 42 s
Bit rate : 10 b/s
Count of elements : 90
Stream size : 2.31 KiB (0%)
Title : Suomi
Language : Finnish
Default : No
Forced : No

Text #13
ID : 15
Format : UTF-8
Codec ID : S_TEXT/UTF8
Codec ID/Info : UTF-8 Plain Text
Duration : 30 min 36 s
Bit rate : 11 b/s
Count of elements : 74
Stream size : 2.47 KiB (0%)
Title : Svenska
Language : Swedish
Default : No
Forced : No
Facebook Twitter Digg Reddit LinkedIn StumbleUpon Email
Show Demonoid some love with BitCoin: 1DNoidoGGLpbjHUbnsWt7FM6UAmEzLs18B How to get BitCoins?
Size: 1.04 GB 

Sponsored links
Loading...
Related torrents
Torrents you may also like:
Download this torrent
Extra information
Tracker: http://tracker.trackerfix.com:80/announce
Last seeder activity: 2 days ago
Files described inside the torrent:4 [ Click here to show the full list]
Comments
No comments posted yet
Loading...

Disclaimer: None of the files shown here are actually hosted or transmitted by this server. The links are provided solely by this site's users. The site moderation is also a service provided by the site's users. The administrator of this site (demonoid.is) cannot be held responsible for what its users post, or any other actions of its users. You may not use this site to distribute or download any material when you do not have the legal rights to do so. It is your own responsibility to adhere to these terms.

By using this site you indicate your agreement to our terms and conditions
   
Link to us | Contact us | API | Commemoration | Feeds/RSS | DMCA
This site and the Demonoid logo are Copyright © Demonoid. All rights reserved.

Show Demonoid some love with 1DNoidoGGLpbjHUbnsWt7FM6UAmEzLs18B