Demonoid
Demonoid
User log in
User registration
Registrations are closed. If you
have an invitation code, click
here
Email: forgotten email?
Password: lost pass?
  Resend activation email
Protect your privacy! Use a VPN When Downloading Torrents
Your country is United States of America. Your IP Address is 3.234.214.179.
Your Internet Provider is tracking your torrent activity! Hide your IP ADDRESS with a VPN!
We strongly recommend using NORD VPN to anonymize your torrenting.
Special: Save 80% off + 3 months FREE for Demonoid users! Also, while you are using NORD you get No Ads for Demonoid members Get VPN Now!
Details for "The Mandalorian S01E02 [1080p.WEBRip x264 DDP5.1-CUSTOM] [ENG / Multisub]"
Created by Ratio: 1.00elladajarek 25 days ago
TV : Fantasy : WEB : English




ReadMe
-------

Audio i napisy pochodzą z AMRAP 720p, wideo z CODY, która jest bezstratnym przechwytywaniem, ale niemieckie napisy są zakodowane na stałe w 3 miejscach. Konwersja z HDR na SDR. 1080p / 2160p WEB H264 zostanie wydany, gdy ktoś będzie mógł go złamać. To najlepsze, co możemy teraz zrobić.

Audio & Subs are from 720p AMRAP , Video is from CODY which is a lossless capture but has german subs hardcoded in 3 places. Converted from HDR to SDR. 1080p/2160p WEB H264 will be released when someone can crack them. This is the best we can do for now.


Gatunek: Akcja, Przygodowy, Sci-Fi, Fantasy
Produkcja: USA
Stacja telewizyjna: Disney+
Data premiery serialu: 12.11.2019 - Świat
Twórcy: Jon Favreau

Po historiach Jango i Boba Fettów w uniwersum Gwiezdnych Wojen pojawia się kolejny wojownik. The Mandalorian jest osadzony po upadku Imperium i przed ujawnieniem się Najwyższego Porządku. Jest to opowieść o samotnym rewolwerowcu osadzona w odległych zakątkach galaktyki daleko od wpływów Nowej Republiki…

Obsada
-------

Pedro Pascal ... The Mandalorian
Gina Carano ... Cara Dune
Nick Nolte ... Kuill
Giancarlo Esposito ... Mof Gideon
Werner Herzog ... The Client
Carl Weathers ... Greef Carga
Emily Swallow ... The Armorer
Omid Abtahi ... Dr. Pershing

Dane Techniczne
---------------

Format : Matroska
Format version : Version 4
File size : 2.32 GiB
Duration : 31 min 50 s
Overall bit rate : 10.4 Mb/s
Writing application : mkvmerge v40.0.0 ('Old Town Road + Pony') 64-bit
Writing library : libebml v1.3.9 + libmatroska v1.5.2

Video
ID : 1
Format : AVC
Format/Info : Advanced Video Codec
Format profile : [email protected]
Format settings : CABAC / 5 Ref Frames
Format settings, CABAC : Yes
Format settings, Reference fra : 5 frames
Codec ID : V_MPEG4/ISO/AVC
Duration : 31 min 50 s
Bit rate : 10.2 Mb/s
Width : 1 920 pixels
Height : 804 pixels
Display aspect ratio : 2.40:1
Frame rate mode : Constant
Frame rate : 23.976 (24000/1001) FPS
Color space : YUV
Chroma subsampling : 4:2:0
Bit depth : 8 bits
Scan type : Progressive
Bits/(Pixel*Frame) : 0.275
Stream size : 2.26 GiB (98%)
Writing library : x264
Language : English
Default : Yes
Forced : No

Audio
ID : 2
Format : E-AC-3
Format/Info : Enhanced AC-3
Commercial name : Dolby Digital Plus
Codec ID : A_EAC3
Duration : 30 min 3 s
Bit rate mode : Constant
Bit rate : 256 kb/s
Channel(s) : 6 channels
Channel layout : L R C LFE Ls Rs
Sampling rate : 48.0 kHz
Frame rate : 31.250 FPS (1536 SPF)
Compression mode : Lossy
Stream size : 55.0 MiB (2%)
Language : English
Service kind : Complete Main
Default : Yes
Forced : No

Text #1
ID : 3
Format : UTF-8
Codec ID : S_TEXT/UTF8
Codec ID/Info : UTF-8 Plain Text
Duration : 26 min 46 s
Bit rate : 21 b/s
Count of elements : 195
Stream size : 4.28 KiB (0%)
Language : English
Default : Yes
Forced : No

Text #2
ID : 4
Format : UTF-8
Codec ID : S_TEXT/UTF8
Codec ID/Info : UTF-8 Plain Text
Duration : 26 min 52 s
Bit rate : 10 b/s
Count of elements : 73
Stream size : 2.02 KiB (0%)
Language : French
Default : No
Forced : No

Text #3
ID : 5
Format : UTF-8
Codec ID : S_TEXT/UTF8
Codec ID/Info : UTF-8 Plain Text
Duration : 26 min 58 s
Bit rate : 10 b/s
Count of elements : 75
Stream size : 2.03 KiB (0%)
Language : Italian
Default : No
Forced : No

Text #4
ID : 6
Format : UTF-8
Codec ID : S_TEXT/UTF8
Codec ID/Info : UTF-8 Plain Text
Duration : 27 min 4 s
Bit rate : 10 b/s
Count of elements : 68
Stream size : 2.00 KiB (0%)
Language : Dutch
Default : No
Forced : No

Text #5
ID : 7
Format : UTF-8
Codec ID : S_TEXT/UTF8
Codec ID/Info : UTF-8 Plain Text
Duration : 26 min 58 s
Bit rate : 9 b/s
Count of elements : 75
Stream size : 1.83 KiB (0%)
Language : Norwegian
Default : No
Forced : No

Text #6
ID : 8
Format : UTF-8
Codec ID : S_TEXT/UTF8
Codec ID/Info : UTF-8 Plain Text
Duration : 29 min 25 s
Bit rate : 9 b/s
Count of elements : 75
Stream size : 2.06 KiB (0%)
Language : Norwegian
Default : No
Forced : No

Text #7
ID : 9
Format : UTF-8
Codec ID : S_TEXT/UTF8
Codec ID/Info : UTF-8 Plain Text
Duration : 26 min 58 s
Bit rate : 10 b/s
Count of elements : 75
Stream size : 2.00 KiB (0%)
Language : Polish
Default : No
Forced : No

Text #8
ID : 10
Format : UTF-8
Codec ID : S_TEXT/UTF8
Codec ID/Info : UTF-8 Plain Text
Duration : 26 min 58 s
Bit rate : 10 b/s
Count of elements : 75
Stream size : 2.09 KiB (0%)
Language : Portuguese
Default : No
Forced : No

Text #9
ID : 11
Format : UTF-8
Codec ID : S_TEXT/UTF8
Codec ID/Info : UTF-8 Plain Text
Duration : 29 min 31 s
Bit rate : 8 b/s
Count of elements : 75
Stream size : 1.86 KiB (0%)
Language : Finnish
Default : No
Forced : No

Text #10
ID : 12
Format : UTF-8
Codec ID : S_TEXT/UTF8
Codec ID/Info : UTF-8 Plain Text
Duration : 26 min 52 s
Bit rate : 10 b/s
Count of elements : 61
Stream size : 2.05 KiB (0%)
Language : Swedish
Default : No
Forced : No

Text #11
ID : 13
Format : UTF-8
Codec ID : S_TEXT/UTF8
Codec ID/Info : UTF-8 Plain Text
Duration : 26 min 58 s
Bit rate : 10 b/s
Count of elements : 62
Stream size : 2.12 KiB (0%)
Default : No
Forced : No

Text #12
ID : 14
Format : UTF-8
Codec ID : S_TEXT/UTF8
Codec ID/Info : UTF-8 Plain Text
Duration : 26 min 52 s
Bit rate : 11 b/s
Count of elements : 79
Stream size : 2.17 KiB (0%)
Language : German
Default : No
Forced : No

Text #13
ID : 15
Format : UTF-8
Codec ID : S_TEXT/UTF8
Codec ID/Info : UTF-8 Plain Text
Duration : 26 min 58 s
Bit rate : 9 b/s
Count of elements : 75
Stream size : 1.97 KiB (0%)
Language : Spanish
Default : No
Forced : No

Facebook Twitter Digg Reddit LinkedIn StumbleUpon Email
Show Demonoid some love with BitCoin: 1DNoidoGGLpbjHUbnsWt7FM6UAmEzLs18B How to get BitCoins?
Size: 2.49 GB 

Sponsored links
Loading...
Related torrents
Torrents you may also like:
Download this torrent
Extra information
Tracker: http://tracker.trackerfix.com:80/announce
Last seeder activity: 1 day ago
Files described inside the torrent:2 [ Click here to show the full list]
Comments
<< Prev      Next >>
| 1 - 2 |
Posted by Ratio: 1.00Mewtwo2 25 days ago [ Complain ] [ Send PM ]
Thanx a lot.
Posted by Ratio: 1.00deadpresidents 10 days ago [ Complain ] [ Send PM ]
BIG KISSES FROM THE INTERWEBS XOXO  :-*
| 1 - 2 |
<< Prev      Next >>
Loading...

Disclaimer: None of the files shown here are actually hosted or transmitted by this server. The links are provided solely by this site's users. The site moderation is also a service provided by the site's users. The administrator of this site (demonoid.is) cannot be held responsible for what its users post, or any other actions of its users. You may not use this site to distribute or download any material when you do not have the legal rights to do so. It is your own responsibility to adhere to these terms.

By using this site you indicate your agreement to our terms and conditions
   
Link to us | Contact us | API | Commemoration | Feeds/RSS | DMCA
This site and the Demonoid logo are Copyright © Demonoid. All rights reserved.

Show Demonoid some love with 1DNoidoGGLpbjHUbnsWt7FM6UAmEzLs18B