User log in
User registration
Registrations are closed. If you have an invitation code, click here, or join our twitter, we post invites often there.
Email: forgotten email?
Password: lost pass?
  Resend activation email
Protect your privacy! Use a VPN When Downloading Torrents
Your country is United States of America. Your IP Address is 3.237.71.23.
Your Internet Provider is tracking your torrent activity! Hide your IP ADDRESS with a VPN!
We strongly recommend using NORD VPN to anonymize your torrenting.
Also, while you are using NORD you get No Ads for Demonoid members Get VPN Now! (68% off)
Details for Once Upon A Time In Hollywood (2019) [1080p HC HDRip x264] STUTTERSHIT
Created by Ratio: 1.00elladajarek 10 months ago[ Add to bookmark ]
Movies : Drama : HDRip : English



Notes : hardcoded Icelandic subtitles

Produkcja: USA, Wielka Brytania
Gatunek: Dramat, Kryminał
Premiera: 16 Sierpnia 2019 (Polska), 21 Maja 2019 (świat)
Reżyseria: Quentin Tarantino
Scenariusz: Quentin Tarantino

Aktor Rick Dalton i jego przyjaciel kaskader powracają do Hollywood. Mężczyźni próbują odnaleźć się w przemyśle filmowym, który ewoluował podczas ich nieobecności.

Obsada

★ Leonardo DiCaprio .... Rick Dalton
★ Brad Pitt .... Cliff Booth
★ Margot Robbie .... Sharon Tate
★ Al Pacino .... Marvin Schwarzs
★ Emile Hirsch .... Jay Sebring
★ Margaret Qualley .... Pussycat
★ Timothy Olyphant .... James Stacey
★ Julia Butters .... Trudi

Dane Techniczne

Format                        : Matroska
Format version                : Version 4
File size                      : 4.57 GiB
Duration                      : 2 h 34 min
Overall bit rate              : 4 229 kb/s
Writing application            : mkvmerge v40.0.0 ('Old Town Road + Pony') 64-bit
Writing library                : libebml v1.3.9 + libmatroska v1.5.2
Cover                          : Yes
Attachments                    : small_cover.jpg / small_cover_land.jpg / cover.jpg / cover_land.jpg

Video
ID                            : 1
Format                        : AVC
Format/Info                    : Advanced Video Codec
Format profile                : [email protected]
Format settings                : CABAC / 4 Ref Frames
Format settings, CABAC        : Yes
Format settings, Reference fra : 4 frames
Codec ID                      : V_MPEG4/ISO/AVC
Duration                      : 2 h 34 min
Bit rate                      : 4 000 kb/s
Width                          : 1 920 pixels
Height                        : 800 pixels
Display aspect ratio          : 2.40:1
Frame rate mode                : Constant
Frame rate                    : 25.000 FPS
Color space                    : YUV
Chroma subsampling            : 4:2:0
Bit depth                      : 8 bits
Scan type                      : Progressive
Bits/(Pixel*Frame)            : 0.104
Stream size                    : 4.29 GiB (94%)
Writing library                : x264
Language                      : English
Default                        : Yes
Forced                        : No

Audio
ID                            : 2
Format                        : AAC LC
Format/Info                    : Advanced Audio Codec Low Complexity
Codec ID                      : A_AAC-2
Duration                      : 2 h 34 min
Bit rate                      : 256 kb/s
Channel(s)                    : 2 channels
Channel layout                : L R
Sampling rate                  : 48.0 kHz
Frame rate                    : 46.875 FPS (1024 SPF)
Compression mode              : Lossy
Stream size                    : 283 MiB (6%)
Language                      : English
Default                        : Yes
Forced                        : No

Text
ID                            : 3
Format                        : UTF-8
Codec ID                      : S_TEXT/UTF8
Codec ID/Info                  : UTF-8 Plain Text
Duration                      : 2 h 33 min
Bit rate                      : 59 b/s
Count of elements              : 2160
Stream size                    : 67.0 KiB (0%)
Language                      : English
Default                        : Yes
Forced                        : No

Facebook Twitter Digg Reddit LinkedIn StumbleUpon Email
Show Demonoid some love with BitCoin: 1DNoidyJgB159bLJT5hDnCkZ4uQrhkfBVk How to get BitCoins?
Peers: 127 seeders, 13 leechers, 173962 total - Updated: 7 months ago [ Update now ]
Size: 4.57 GB 

Sponsored links
Loading...
Related torrents
Torrents you may also like:
Download this torrent
Extra information
Tracker: http://tracker.trackerfix.com:80/announce
Torrent hash: EC034EDE D925F626 58B2AA16 9E7CDA53 1D4F91EA
Files described inside the torrent: 3 [ Click here to show the full list ]
Comments
No comments posted yet
Loading...

Disclaimer: None of the files shown here are actually hosted or transmitted by this server. The links are provided solely by this site's users. The site moderation is also a service provided by the site's users. The administrator of this site (demonoid.is) cannot be held responsible for what its users post, or any other actions of its users. You may not use this site to distribute or download any material when you do not have the legal rights to do so. It is your own responsibility to adhere to these terms.

By using this site you indicate your agreement to our terms and conditions
   
Link to us | Contact us | API | Commemoration | Twitter: @DemonoidBT | Feeds/RSS | DMCA
This site and the Demonoid logo are Copyright © Demonoid. All rights reserved.

Show Demonoid some love with 1DNoidyJgB159bLJT5hDnCkZ4uQrhkfBVk