User log in
User registration
Registrations are open
Click here to register
Email: forgotten email?
Password: lost pass?
  Resend activation email
Protect your privacy! Use a VPN When Downloading Torrents
Your country is N/A. Your IP Address is 35.168.62.171.
Your Internet Provider is tracking your torrent activity! Hide your IP ADDRESS with a VPN!
We strongly recommend using NORD VPN to anonymize your torrenting.
Also, while you are using NORD you get No Ads for Demonoid members Get VPN Now! (68% off)
Details for The Mandalorian (2019) S01E6 Chapter 6 [720p WEBRip x264] [Multisub / Napisy PL]
Created by Ratio: 1.00elladajarek 10 months ago[ Add to bookmark ]
TV : Fantasy : WEB : English



Gatunek: Akcja, Przygodowy, Sci-Fi, Fantasy
Produkcja: USA
Stacja telewizyjna: Disney+
Data premiery serialu: 12.11.2019 - Åšwiat
Twórcy: Jon Favreau

Po historiach Jango i Boba Fettów w uniwersum Gwiezdnych Wojen pojawia się kolejny wojownik. The Mandalorian jest osadzony po upadku Imperium i przed ujawnieniem się Najwyższego Porządku. Jest to opowieść o samotnym rewolwerowcu osadzona w odległych zakątkach galaktyki daleko od wpływów Nowej Republiki…

Obsada
-------

Pedro Pascal ... The Mandalorian
Gina Carano ... Cara Dune
Nick Nolte ... Kuill
Giancarlo Esposito ... Mof Gideon
Werner Herzog ... The Client
Carl Weathers ... Greef Carga
Emily Swallow ... The Armorer
Omid Abtahi ... Dr. Pershing

Dane Techniczne
---------------

Format : Matroska
Format version : Version 4
File size : 1.44 GiB
Duration : 41 min 3 s
Overall bit rate mode : Variable
Overall bit rate : 5 011 kb/s
Writing application : mkvmerge v30.1.0 ('Forever And More') 64-bit
Writing library : libebml v1.3.6 + libmatroska v1.4.9

Video
ID : 1
Format : AVC
Format/Info : Advanced Video Codec
Format profile : High@L3.1
Format settings : CABAC / 4 Ref Frames
Format settings, CABAC : Yes
Format settings, Reference fra : 4 frames
Codec ID : V_MPEG4/ISO/AVC
Duration : 41 min 3 s
Bit rate mode : Variable
Bit rate : 4 240 kb/s
Maximum bit rate : 6 375 kb/s
Width : 1 280 pixels
Height : 720 pixels
Display aspect ratio : 16:9
Frame rate mode : Constant
Frame rate : 23.976 (24000/1001) FPS
Color space : YUV
Chroma subsampling : 4:2:0
Bit depth : 8 bits
Scan type : Progressive
Bits/(Pixel*Frame) : 0.192
Stream size : 1.22 GiB (85%)
Language : English
Default : Yes
Forced : No
Color range : Limited
Color primaries : BT.709
Transfer characteristics : BT.709
Matrix coefficients : BT.709

Audio
ID : 2
Format : E-AC-3 JOC
Format/Info : Enhanced AC-3 with Joint Object Coding
Commercial name : Dolby Digital Plus with Dolby Atmos
Codec ID : A_EAC3
Duration : 41 min 3 s
Bit rate mode : Constant
Bit rate : 768 kb/s
Channel(s) : 6 channels
Channel layout : L R C LFE Ls Rs
Sampling rate : 48.0 kHz
Frame rate : 31.250 FPS (1536 SPF)
Compression mode : Lossy
Stream size : 226 MiB (15%)
Language : English
Service kind : Complete Main
Default : Yes
Forced : No
Complexity index : 16
Number of dynamic objects : 15
Bed channel count : 1 channel
Bed channel configuration : LFE

Text #1
ID : 3
Format : UTF-8
Codec ID : S_TEXT/UTF8
Codec ID/Info : UTF-8 Plain Text
Duration : 37 min 43 s
Bit rate : 33 b/s
Count of elements : 272
Stream size : 9.31 KiB (0%)
Title : Dansk
Language : Danish
Default : No
Forced : No

Text #2
ID : 4
Format : UTF-8
Codec ID : S_TEXT/UTF8
Codec ID/Info : UTF-8 Plain Text
Duration : 37 min 42 s
Bit rate : 34 b/s
Count of elements : 355
Stream size : 9.61 KiB (0%)
Title : Deutsch
Language : German
Default : No
Forced : No

Text #3
ID : 5
Format : UTF-8
Codec ID : S_TEXT/UTF8
Codec ID/Info : UTF-8 Plain Text
Duration : 38 min 0 s
Bit rate : 48 b/s
Count of elements : 453
Stream size : 13.6 KiB (0%)
Title : English [CC]
Language : English
Default : No
Forced : No

Text #4
ID : 6
Format : UTF-8
Codec ID : S_TEXT/UTF8
Codec ID/Info : UTF-8 Plain Text
Duration : 37 min 42 s
Bit rate : 33 b/s
Count of elements : 349
Stream size : 9.27 KiB (0%)
Title : Español
Language : Spanish
Default : No
Forced : No

Text #5
ID : 7
Format : UTF-8
Codec ID : S_TEXT/UTF8
Codec ID/Info : UTF-8 Plain Text
Duration : 37 min 43 s
Bit rate : 32 b/s
Count of elements : 332
Stream size : 9.11 KiB (0%)
Title : Français
Language : French
Default : No
Forced : No

Text #6
ID : 8
Format : UTF-8
Codec ID : S_TEXT/UTF8
Codec ID/Info : UTF-8 Plain Text
Duration : 37 min 42 s
Bit rate : 33 b/s
Count of elements : 348
Stream size : 9.24 KiB (0%)
Title : Italiano
Language : Italian
Default : No
Forced : No

Text #7
ID : 9
Format : UTF-8
Codec ID : S_TEXT/UTF8
Codec ID/Info : UTF-8 Plain Text
Duration : 37 min 42 s
Bit rate : 34 b/s
Count of elements : 300
Stream size : 9.60 KiB (0%)
Title : Nederlands
Language : Dutch
Default : No
Forced : No

Text #8
ID : 10
Format : UTF-8
Codec ID : S_TEXT/UTF8
Codec ID/Info : UTF-8 Plain Text
Duration : 37 min 42 s
Bit rate : 30 b/s
Count of elements : 349
Stream size : 8.54 KiB (0%)
Title : Norsk
Language : Norwegian
Default : No
Forced : No

Text #9
ID : 11
Format : UTF-8
Codec ID : S_TEXT/UTF8
Codec ID/Info : UTF-8 Plain Text
Duration : 37 min 42 s
Bit rate : 34 b/s
Count of elements : 347
Stream size : 9.58 KiB (0%)
Title : Polski
Language : Polish
Default : No
Forced : No

Text #10
ID : 12
Format : UTF-8
Codec ID : S_TEXT/UTF8
Codec ID/Info : UTF-8 Plain Text
Duration : 37 min 42 s
Bit rate : 36 b/s
Count of elements : 347
Stream size : 9.97 KiB (0%)
Title : Português
Language : Portuguese
Default : No
Forced : No

Text #11
ID : 13
Format : UTF-8
Codec ID : S_TEXT/UTF8
Codec ID/Info : UTF-8 Plain Text
Duration : 37 min 42 s
Bit rate : 36 b/s
Count of elements : 348
Stream size : 10.1 KiB (0%)
Title : Português (Brasil)
Language : Portuguese
Default : No
Forced : No

Text #12
ID : 14
Format : UTF-8
Codec ID : S_TEXT/UTF8
Codec ID/Info : UTF-8 Plain Text
Duration : 37 min 42 s
Bit rate : 31 b/s
Count of elements : 349
Stream size : 8.75 KiB (0%)
Title : Suomi
Language : Finnish
Default : No
Forced : No

Text #13
ID : 15
Format : UTF-8
Codec ID : S_TEXT/UTF8
Codec ID/Info : UTF-8 Plain Text
Duration : 37 min 42 s
Bit rate : 35 b/s
Count of elements : 284
Stream size : 9.82 KiB (0%)
Title : Svenska
Language : Swedish
Default : No
Forced : No
Facebook Twitter Digg Reddit LinkedIn StumbleUpon Email
Show Demonoid some love with BitCoin: 1DNoidyJgB159bLJT5hDnCkZ4uQrhkfBVk How to get BitCoins?
Peers: 297 seeders, 23 leechers, 761367 total - Updated: 8 months ago [ Update now ]
Size: 1.44 GB 

Sponsored links
Related torrents
Torrents you may also like:
Download this torrent
Extra information
Tracker: http://tracker.trackerfix.com:80/announce
Torrent hash: C7985ADF CB9F5EF2 71497AB8 8E411D5D B1A06946
Files described inside the torrent: 4 [ Click here to show the full list ]
Comments
No comments posted yet

Disclaimer: None of the files shown here are actually hosted or transmitted by this server. The links are provided solely by this site's users. The site moderation is also a service provided by the site's users. The administrator of this site (demonoid.is) cannot be held responsible for what its users post, or any other actions of its users. You may not use this site to distribute or download any material when you do not have the legal rights to do so. It is your own responsibility to adhere to these terms.

By using this site you indicate your agreement to our terms and conditions
   
Link to us | Contact us | API | Commemoration | Twitter: @DemonoidBT | Feeds/RSS | DMCA
This site and the Demonoid logo are Copyright © Demonoid. All rights reserved.

Show Demonoid some love with 1DNoidyJgB159bLJT5hDnCkZ4uQrhkfBVk