User log in
User registration
Registrations are closed. If you have an invitation code, click here, or join our twitter, we post invites often there.
Email: forgotten email?
Password: lost pass?
  Resend activation email
Protect your privacy! Use a VPN When Downloading Torrents
Your IP Address is . Location is .
Your Internet Provider is tracking your torrent activity! Hide your IP ADDRESS with a VPN!
We strongly recommend using NORD VPN to anonymize your torrenting.
Also, while you are using NORD you get No Ads for Demonoid members Get VPN Now!
Details for MotoGp-2-3.2019.R10.Czech.Republic.Qualifying.Pack.1080p50.BTSportHD
Created by Ratio: 1.00BanHammer 2 years ago[ Add to bookmark ]
TV : Biography : English
MotoGp-2-3.2019.R10.Czech.Republic.Qualifying.Pack.1080p50.BTSportHD







Remuxed to MKV. Thank to the original cappers/uploaders
Includes Qualifying from MotoGp, Moto2 & Moto3

Quote:

ormat                                  : Matroska
Format version                          : Version 4 / Version 2
File size                                : 4.28 GiB
Duration                                : 1h 37mn
Overall bit rate mode                    : Variable
Overall bit rate                        : 6 249 Kbps
Encoded date                            : UTC 2019-08-03 21:03:27
Writing application                      : mkvmerge v8.8.0 ('Wind at my back') 64bit
Writing library                          : libebml v1.3.3 + libmatroska v1.4.4

Video
ID                                      : 1
Format                                  : AVC
Format/Info                              : Advanced Video Codec
Format profile                          : [email protected]
Format settings, CABAC                  : Yes
Format settings, ReFrames                : 2 frames
Format settings, GOP                    : M=3, N=24
Codec ID                                : V_MPEG4/ISO/AVC
Duration                                : 1h 37mn
Bit rate mode                            : Variable
Bit rate                                : 5 998 Kbps
Maximum bit rate                        : 12.4 Mbps
Width                                    : 1 920 pixels
Height                                  : 1 080 pixels
Original height                          : 1 088 pixels
Display aspect ratio                    : 16:9
Original display aspect ratio            : 16:9
Frame rate mode                          : Constant
Frame rate                              : 50.000 fps
Color space                              : YUV
Chroma subsampling                      : 4:2:0
Bit depth                                : 8 bits
Scan type                                : Progressive
Bits/(Pixel*Frame)                      : 0.058
Stream size                              : 4.11 GiB (96%)
Language                                : English
Default                                  : Yes
Forced                                  : No

Audio
ID                                      : 2
Format                                  : AAC
Format/Info                              : Advanced Audio Codec
Format profile                          : LC
Codec ID                                : A_AAC
Duration                                : 1h 37mn
Bit rate                                : 247 Kbps
Channel(s)                              : 2 channels
Channel positions                        : Front: L R
Sampling rate                            : 48.0 KHz
Frame rate                              : 46.875 fps (1024 spf)
Compression mode                        : Lossy
Stream size                              : 173 MiB (4%)
Language                                : English
Default                                  : Yes
Forced                                  : No

Facebook Twitter Digg Reddit LinkedIn StumbleUpon Email
Show Demonoid some love with BitCoin: 1DNoidyJgB159bLJT5hDnCkZ4uQrhkfBVk How to get BitCoins?
Peers: 0 seeders, 0 leechers, 0 total - Updated: 1 month ago [ Update now ]
Size: 11.19 GB 

Sponsored links
Related torrents
Torrents you may also like:
Download this torrent
Extra information
Tracker: udp://tracker.coppersurfer.tk:6969/announce
Torrent hash: 5B94F67B B31F0EEB 764412DE D15DC2DD E7362C60
Files described inside the torrent: 3 [ Click here to show the full list ]
Comments
No comments posted yet

Disclaimer: None of the files shown here are actually hosted or transmitted by this server. The links are provided solely by this site's users. The site moderation is also a service provided by the site's users. The administrator of this site (demonoid.is) cannot be held responsible for what its users post, or any other actions of its users. You may not use this site to distribute or download any material when you do not have the legal rights to do so. It is your own responsibility to adhere to these terms.

By using this site you indicate your agreement to our terms and conditions
   
Link to us | Contact us | API | Commemoration | Twitter: @DemonoidBT | Feeds/RSS | DMCA
This site and the Demonoid logo are Copyright © Demonoid. All rights reserved.

Show Demonoid some love with 1DNoidyJgB159bLJT5hDnCkZ4uQrhkfBVk