Demonoid.is
Demonoid.is
User log in
User registration
Registrations are closed. If you
have an invitation code, click
here
Email: forgotten email?
Password: lost pass?
  Resend activation email
Protect your privacy! Use a VPN When Downloading Torrents
Your country is United States of America. Your IP Address is 3.95.139.100.
Your Internet Provider is tracking your torrent activity! Hide your IP ADDRESS with a VPN!
We strongly recommend using NORD VPN to anonymize your torrenting.
Special: Save 80% off + 3 months FREE for Demonoid users! Also, while you are using NORD you get No Ads for Demonoid members Get VPN Now!
Details for Great British Railway Journeys S11E07 Truro to St Mawgan (1280x720p HD, 50fps, soft Eng subs)
Created by Ratio: 1.00ElsonRoa 14 days ago
TV : Documentary : HD 720p : English
Great British Railway Journeys S11E07 Truro to St Mawgan (1280x720p HD, 50fps, soft Eng subs)

Michael Portillo is in Cornwall's county town, Truro, with his 1930s Bradshaw's Guide. In the surrounding countryside, he finds the historic estate of Trewithen, whose gardens were stocked from China by professional plant hunters commissioned by its owner.

The Atlantic Coast branch line carries Michael north to Newquay, where he discovers a pioneering surfer and braves the waves on a belly board.

In the nearby village of St Mawgan, Michael is introduced to the ancient Cornish sport of 'wrassling', which surged in popularity between the wars as part of a Cornish Celtic revival. Champion wrestler Johnny Platt is standing by to take Michael on.

At Newquay Airport, he hears about the beginnings of passenger air travel to Cornwall as tourism took off during the 1920s and 30s and finds that future flight could be even faster - in space.

First broadcast:  14 January 2020
Duration:  30 minutes

Torrent dead? Request reseed at torrentgalaxy.org - or ask at elsonroa at tutanota.com



Media info:-
General
Format : MPEG-4
Format profile : Base Media
Codec ID : isom (isom/iso2/avc1/mp41)
File size : 1.03 GiB
Duration : 29mn 0s
Overall bit rate mode : Variable
Overall bit rate : 5 071 Kbps


Video
ID : 1
Format : AVC
Format/Info : Advanced Video Codec
Format profile : [email protected]
Format settings, CABAC : Yes
Format settings, ReFrames : 4 frames
Codec ID : avc1
Codec ID/Info : Advanced Video Coding
Duration : 29mn 0s
Bit rate : 4 935 Kbps
Width : 1 280 pixels
Height : 720 pixels
Display aspect ratio : 16:9
Frame rate mode : Constant
Frame rate : 50.000 fps
Color space : YUV
Chroma subsampling : 4:2:0
Bit depth : 8 bits
Scan type : Progressive
Bits/(Pixel*Frame) : 0.107
Stream size : 1 024 MiB (97%)
Encoded date : UTC 1904-01-01 00:00:00
Tagged date : UTC 1904-01-01 00:00:00
Color range : Limited
Color primaries : BT.709
Transfer characteristics : BT.709
Matrix coefficients : BT.709

Audio
ID : 2
Format : AAC
Format/Info : Advanced Audio Codec
Format profile : LC
Codec ID : 40
Duration : 29mn 0s
Bit rate mode : Variable
Bit rate : 128 Kbps
Maximum bit rate : 152 Kbps
Channel(s) : 2 channels
Channel positions : Front: L R
Sampling rate : 48.0 KHz
Frame rate : 46.875 fps (1024 spf)
Compression mode : Lossy
Stream size : 26.6 MiB (3%)
Language : English

Facebook Twitter Digg Reddit LinkedIn StumbleUpon Email
Show Demonoid some love with BitCoin: 1DNoidoGGLpbjHUbnsWt7FM6UAmEzLs18B How to get BitCoins?
Size: 1.03 GB 

Sponsored links
Loading...
Related torrents
Torrents you may also like:
Download this torrent
Extra information
Tracker: udp://explodie.org:6969/announce
Rate this torrent: [ Votes: 0 ]
  • This torrent is not rated yet
  • 1
  • 2
  • 3
  • 4
  • 5
Files described inside the torrent:8 [ Click here to show the full list ]
Comments
No comments posted yet
Loading...

Disclaimer: None of the files shown here are actually hosted or transmitted by this server. The links are provided solely by this site's users. The site moderation is also a service provided by the site's users. The administrator of this site (demonoid.is) cannot be held responsible for what its users post, or any other actions of its users. You may not use this site to distribute or download any material when you do not have the legal rights to do so. It is your own responsibility to adhere to these terms.

By using this site you indicate your agreement to our terms and conditions
   
Link to us | Contact us | API | Commemoration | Feeds/RSS | DMCA
This site and the Demonoid logo are Copyright © Demonoid. All rights reserved.

Show Demonoid some love with 1DNoidoGGLpbjHUbnsWt7FM6UAmEzLs18B