User log in
User registration
Registrations are closed. If you have an invitation code, click here, or join our twitter, we post invites often there.
Email: forgotten email?
Password: lost pass?
  Resend activation email
Protect your privacy! Use a VPN When Downloading Torrents
Your country is United States of America. Your IP Address is 3.237.71.23.
Your Internet Provider is tracking your torrent activity! Hide your IP ADDRESS with a VPN!
We strongly recommend using NORD VPN to anonymize your torrenting.
Also, while you are using NORD you get No Ads for Demonoid members Get VPN Now! (68% off)
Details for Exposed The Church's Darkest Secret S01E02 (1280x720p HD, 50fps, soft Eng subs)
Created by Ratio: 1.00ElsonRoa 8 months ago[ Add to bookmark ]
TV : Documentary : HD 720p : English
Exposed The Church's Darkest Secret S01E02 (1280x720p HD, 50fps, soft Eng subs)

Part Two of this emotional and powerful series covers the story of the survivors of Bishop Peter Ball's abuse and the newly appointed Church Safeguarding Officers who came together to pursue Bishop Peter Ball to his eventual conviction and imprisonment.

By the mid-1990s Bishop Peter was back officiating in church services. George Carey, then the Archbishop of Canterbury, had paid towards Ball's legal costs and a personal holiday with money from the Church, while the victim who alerted the police, Neil Todd, felt shunned by the religious establishment left with no support from the Church.

At this time Bishop Peter Ball was renting a house provided by The Prince of Wales through the Duchy of Cornwall. The Prince also sent supportive letters to Ball, in one case criticising his accusers and would later tell the IICSA - the Independent Inquiry into Child Sexual Abuse - that he believed Ball to be innocent at that time.

In 2008 Bishop Peter Ball came to the attention of two of the new safeguarding officers brought into the church, who become suspicious of how he is was still being allowed to officiate at church services.   

Around this time, Phil Johnson, another survivor approached the police with details of his own terrible abuse. We hear the testimony of how two priests groomed and abused him in Eastbourne during the 70s and 80s when he was a young boy and teenager. The priests' immediate superior was Peter Ball who was then the Bishop of Lewes. Not only was Ball allowing priests in his diocese area to abuse children, we also hear from Phil that he was personally sexually abused by Ball at this time.

The separate efforts of Phil Johnson and the two Church Safeguarding Officers eventually lead to the discovery that the former Archbishop Carey and other high-ranking members of the clergy had stopped Bishop Peter Ball's crimes from coming to public attention. We learn that it was not just letters from other victims that weren't handed over to police during the original investigation into Bishop Peter. Church money had been used to hire a private investigator to discredit Ball's victims though this report had been buried when it honestly reported that Ball was in fact a prolific abuser.

On finally discovering this shocking report, one of the safeguarding officers handed it to the police who decided that Peter Ball was worthy of investigation. Attempts were made to arrest him but Ball's frail health made this impossible and his victims yet again feared he'd escape justice. 

Around this time Neil Todd, the young man who so bravely brought the initial allegations to light, took his own life.  His family speak movingly of this tragic loss of life and how he could not bear to endure another police investigation, and the prospect of not being believed once again.

Ball was finally charged and eventually pleaded guilty to two counts of indecent assault and one of misconduct in a public office after admitting the abuse of 18 young men from 1977 to 1992. In October 2015 he was sentenced to 32 months in prison. He served 16 months. 

Peter Ball is the most senior sexual criminal in the Church of England to have been imprisoned, but his story represents many others abusers and a culture within the Church which helped them escape justice.

First broadcast:  14 January 2020
Duration:  1 hour

Torrent dead? Request reseed at torrentgalaxy.org - or ask at elsonroa at tutanota.com



Media info:
General
Format : MPEG-4
Format profile : Base Media
Codec ID : isom (isom/iso2/avc1/mp41)
File size : 1.52 GiB
Duration : 58mn 45s
Overall bit rate : 3 711 Kbps

Video
ID : 1
Format : AVC
Format/Info : Advanced Video Codec
Format profile : [email protected]
Format settings, CABAC : Yes
Format settings, ReFrames : 2 frames
Codec ID : avc1
Codec ID/Info : Advanced Video Coding
Duration : 58mn 45s
Bit rate : 3 571 Kbps
Width : 1 280 pixels
Height : 720 pixels
Display aspect ratio : 16:9
Frame rate mode : Variable
Frame rate : 50.000 fps
Minimum frame rate : 25.000 fps
Maximum frame rate : 90 000.000 fps
Standard : Component
Color space : YUV
Chroma subsampling : 4:2:0
Bit depth : 8 bits
Scan type : Progressive
Bits/(Pixel*Frame) : 0.077
Stream size : 1.47 GiB (96%)
Encoded date : UTC 1904-01-01 00:00:00
Tagged date : UTC 1904-01-01 00:00:00
Color range : Limited
Color primaries : BT.709
Transfer characteristics : BT.709
Matrix coefficients : BT.709

Audio
ID : 2
Format : AAC
Format/Info : Advanced Audio Codec
Format profile : LC
Codec ID : 40
Duration : 58mn 45s
Bit rate mode : Constant
Bit rate : 125 Kbps
Channel(s) : 2 channels
Channel positions : Front: L R
Sampling rate : 48.0 KHz
Frame rate : 46.875 fps (1024 spf)
Compression mode : Lossy
Stream size : 52.7 MiB (3%)
Language : English

Facebook Twitter Digg Reddit LinkedIn StumbleUpon Email
Show Demonoid some love with BitCoin: 1DNoidyJgB159bLJT5hDnCkZ4uQrhkfBVk How to get BitCoins?
Peers: 0 seeders, 0 leechers, 0 total - Updated: 8 months ago [ Update now ]
Size: 1.52 GB 

Sponsored links
Related torrents
Torrents you may also like:
Download this torrent
Extra information
Tracker: udp://explodie.org:6969/announce
Torrent hash: 8A529F27 057C6D66 AC62C402 1DF17936 6536CD05
Files described inside the torrent: 8 [ Click here to show the full list ]
Comments
No comments posted yet

Disclaimer: None of the files shown here are actually hosted or transmitted by this server. The links are provided solely by this site's users. The site moderation is also a service provided by the site's users. The administrator of this site (demonoid.is) cannot be held responsible for what its users post, or any other actions of its users. You may not use this site to distribute or download any material when you do not have the legal rights to do so. It is your own responsibility to adhere to these terms.

By using this site you indicate your agreement to our terms and conditions
   
Link to us | Contact us | API | Commemoration | Twitter: @DemonoidBT | Feeds/RSS | DMCA
This site and the Demonoid logo are Copyright © Demonoid. All rights reserved.

Show Demonoid some love with 1DNoidyJgB159bLJT5hDnCkZ4uQrhkfBVk